[Цитировать]
mimok

Трансформеры: Эпоха истребления / Transformers: Age of Extinction (2014) BDRip 720р | IMAX | 48fps«Сражаться вместе... Или погибнуть вместе»- Информация о фильме
Название: Трансформеры: Эпоха истребления
Оригинальное название: Transformers: Age of Extinction
Год выхода: 2014
Жанр: Фантастика, Боевик, Приключения
Режиссер: Майкл Бэй
В ролях: Марк Уолберг, Никола Пельтц, Стэнли Туччи, Келси Грэммер, София Майлс, Эбигейл Клейн, Джек Рейнор, Титус Уэлливер, Питер Каллен, ТиДжей Миллер
Описание фильма:
Автоботы и десептиконы оставили человечество собирать планету по кусочкам. Между тем группа могущественных бизнесменов и гениальных ученых пытается извлечь уроки из ошибок прошлого и улучшить технологии до такой степени, чтобы выйти за пределы контролируемого ранее. В это время другая группа — древних мощных трансформеров — берет Землю под прицел.
Страна: США, Китай
Студия: Paramount Pictures, Hasbro Inc.
Продолжительность: 02:45:06
Перевод: Дублированный (Лицензия!)
Субтитры: Вшитые, отключаемые
Язык субтитров: Русский (Forsed, Full), Английский (Full)

Дата мировой премьеры: 19 июня 2014, Гонконг
Дата российской премьеры: 26 июня 2014, «Централ Партнершип»
Дата выхода DVD релиза: 8 декабря 2014, «Новый Диск»
Дата выхода Blu-Ray релиза: 15 декабря 2014, «Новый Диск»
Файл
Формат: MKV
Кодек: MPEG-4 AVC/H.264
Качество: BDRip 720p
Видео: ~ 7377 Кбит/сек, 1280 x 720, 47.952 кадров/сек
Аудио: AC3 5.1, 48.0 KHz, 640 Кбит/сек - Русский

MediaInfo

Общее
Уникальный идентификатор : 193382847477684697205511396467696158686 (0x917C2E81D8EFF35FA397B0651D1F47DE)
Полное имя : D:\Торренты\Transformers. Age of Extinction_IMAX_48fps.mkv
Формат : Matroska
Версия формата : Version 2
Размер файла : 9,43 Гбайт
Продолжительность : 2 ч. 45 м.
Общий поток : 8180 Кбит/сек
Название фильма : Transformers: Age of Extinction (2014) [IMAX Edition] Blu-ray 3D CEE 1080p
Дата кодирования : UTC 2015-01-18 14:29:20
Программа кодирования : mkvmerge v6.9.1 ('Blue Panther') 64bit built on Apr 18 2014 18:23:38
Библиотека кодирования : libebml v1.3.0 + libmatroska v1.4.1
Видео
Идентификатор : 1
Формат : AVC
Формат/Информация : Advanced Video Codec
Профиль формата : High@L4.1
Параметр CABAC формата : Да
Параметр ReFrames формата : 6 кадров
Идентификатор кодека : V_MPEG4/ISO/AVC
Продолжительность : 2 ч. 45 м.
Битрейт : 7377 Кбит/сек
Ширина : 1280 пикселей
Высота : 720 пикселей
Соотношение сторон : 16:9
Режим частоты кадров : Постоянный
Частота кадров : 47,952 кадров/сек
Цветовое пространство : YUV
Субдискретизация насыщенности : 4:2:0
Битовая глубина : 8 бит
Тип развёртки : Прогрессивная
Бит/(Пиксели*Кадры) : 0.167
Размер потока : 8,51 Гбайт (90%)
Заголовок : Release by mimok
Библиотека кодирования : x264 core 125 r2208 d9d2288
Настройки программы : cabac=1 / ref=6 / deblock=1:0:0 / analyse=0x3:0x133 / me=umh / subme=8 / psy=1 / psy_rd=1.00:0.15 / mixed_ref=1 / me_range=20 / chroma_me=1 / trellis=2 / 8x8dct=1 / cqm=0 / deadzone=21,11 / fast_pskip=0 / chroma_qp_offset=-3 / threads=6 / lookahead_threads=1 / sliced_threads=0 / nr=0 / decimate=0 / interlaced=0 / bluray_compat=0 / constrained_intra=0 / bframes=8 / b_pyramid=2 / b_adapt=2 / b_bias=0 / direct=1 / weightb=1 / open_gop=0 / weightp=2 / keyint=250 / keyint_min=25 / scenecut=40 / intra_refresh=0 / rc=crf / mbtree=0 / crf=18.0 / qcomp=0.63 / qpmin=10 / qpmax=51 / qpstep=4 / ip_ratio=1.40 / pb_ratio=1.30 / aq=1:1.20
Default : Да
Forced : Нет
Аудио
Идентификатор : 2
Формат : AC-3
Формат/Информация : Audio Coding 3
Расширение режима : CM (complete main)
Параметр Endianness формата : Big
Идентификатор кодека : A_AC3
Продолжительность : 2 ч. 45 м.
Вид битрейта : Постоянный
Битрейт : 640 Кбит/сек
Каналы : 6 каналов
Расположение каналов : Front: L C R, Side: L R, LFE
Частота : 48,0 КГц
Битовая глубина : 16 бит
Метод сжатия : С потерями
Размер потока : 756 Мбайт (8%)
Заголовок : Dub
Язык : Russian
Default : Да
Forced : Нет
Текст #1
Идентификатор : 3
Формат : UTF-8
Идентификатор кодека : S_TEXT/UTF8
Идентификатор кодека/Информация : UTF-8 Plain Text
Заголовок : Full
Язык : Russian
Default : Да
Forced : Нет
Текст #2
Идентификатор : 4
Формат : UTF-8
Идентификатор кодека : S_TEXT/UTF8
Идентификатор кодека/Информация : UTF-8 Plain Text
Заголовок : Full
Язык : English
Default : Нет
Forced : Нет
Текст #3
Идентификатор : 5
Формат : UTF-8
Идентификатор кодека : S_TEXT/UTF8
Идентификатор кодека/Информация : UTF-8 Plain Text
Заголовок : Forsed
Язык : Russian
Default : Нет
Forced : Нет

Скринлист

Скриншоты:

Релиз подготовлен 60 - fps

[Цитировать]
ZHz

Ох уж этот Майкл Бей, 1 скрин как из ммо какой то
P.S. это на том новом скрипте сделал, что ты упоминал?

[Цитировать]
mimok

1601Ох уж этот Майкл Бей, 1 скрин как из ммо какой то
P.S. это на том новом скрипте сделал, что ты упоминал?
да, но скрипт нацелен не на увеличение плавности и уменьшение артефактов а на качество картинки при наименьшем битрейте. Впринципе, получилось (на мой взгляд). Только скорость кодирования очень мола, потому пришлось частями делать, потом склеивать.

[Цитировать]
ZHz

ну это надо в настройках кодировщика подгонять

[Цитировать]
Fragrance

Класс !

[Цитировать]
VinceRage

семпл на 48 выигрывает у семпла на 60! + тут IMAX. только зачем оставлены тонкие поля??? у них какой то аймакс нестандартный получился

[Цитировать]
mimok

1749семпл на 48 выигрывает у семпла на 60! + тут IMAX. только зачем оставлены тонкие поля??? у них какой то аймакс нестандартный получился
сейчас такой IMAX пошёл, экономия на всём экране. Обрезать полосы хотел,но они везде разной ширины, потому и отказался от этой затеи. 48 лучше по качеству чем 60 потому что применял кучу скриптов и фильтров , но на поток не поставлю,т.к. очень долгое кодирование.

[Цитировать]
Plusneen

Качество отличное! Соглашусь с VinceRage выигрвыает у 60 fps. Автор молодец.
А полосы в фильме в тех местах где снимали не на аймакс камеру. Бюджет ведь тоже не резиновый )
 
Показать сообщения:    

Текущее время: 07-Дек 19:20

Часовой пояс: UTC + 3


Вы не можете начинать темы
Вы не можете отвечать на сообщения
Вы не можете редактировать свои сообщения
Вы не можете удалять свои сообщения
Вы не можете голосовать в опросах
Вы не можете прикреплять файлы к сообщениям
Вы не можете скачивать файлы