Властелин колец: Трилогия / The Lord of the Rings: Trilogy (2001-2003) BDRip-AVC | Extended Cut | 60 fps Битва за Землю / Captive State (2019) BDRip 1080p | 60 fps Снегоуборщик / Cold Pursuit (2019) BDRip 1080p | 60 fps Дамбо / Dumbo (2019) BDRip 1080p | 60 fps Джон Уик / John Wick (2014) BDRip 720p | 60 fps Клаустрофобы / Escape Room (2019) BDRip 1080p | 60 fps Проклятие плачущей / The Curse of La Llorona (2019) BDRip 720p | 60 fps Ван Хельсинг / Van Helsing (2004) BDRip-AVC | 60 fps
  1. Longevity:
    5 years 2 months
    Posts:
    2418
    Gender:
    Male
    «Refuse To Be A Victim» Информация
    Название: Траффик
    Оригинальное название: Traffik
    Год выхода: 2018
    Жанр: Триллер
    Режиссер: Деон Тейлор
    Сценарий: Деон Тейлор
    Продюсер: Роксанна Авент, Пола Пэттон
    В ролях: Омар Эппс, Пола Пэттон, Мисси Пайл, Доун Оливери, Уильям Фихтнер, Розелин Санчес, Люк Госс, Лаз Алонсо, Лорин МакКрэйли, Скотт Лит

    Сюжет:
    Молодая пара Бреа и Джон отправляются в романтическое путешествие в горы. Вдали от цивилизации они подвергаются нападению банды торговцев людьми и вступают с ними в смертельное противостояние.

    Страна: США
    Продолжительность: 01:36:51

    Файл
    Кодек: H.264
    Формат: MKV
    Качество: BDRip 720p | 60 fps
    Видео: 1280 x 532 (2.406) | 59.940 fps | 23.0 Мбит/сек
    Аудио 01: AC3 | 2.0 | 48 kHz | 192 kbps | 16 bit | HDrezka Studio |
    Аудио 02: AC3 | 5.1 | 48 kHz | 448 kbps | 16 bit | english |
    Субтитры: английские

    MedifInfo

    Видео
    Идентификатор : 1
    Формат : AVC
    Формат/Информация : Advanced Video Codec
    Профиль формата : High@L4.1
    Настройки формата : CABAC / 4 Ref Frames
    Параметр CABAC формата : Да
    Параметр RefFrames формата : 4 кадра
    Режим смешивания : Header stripping
    Идентификатор кодека : V_MPEG4/ISO/AVC
    Продолжительность : 1 ч. 36 м.
    Вид битрейта : Переменный
    Битрейт : 9627 Кбит/сек
    Максимальный битрейт : 10000 Кбит/сек
    Ширина : 1280 пикселей
    Высота : 532 пикселя
    Соотношение сторон : 2,40:1
    Режим частоты кадров : Постоянный
    Частота кадров : 59,940 (60000/1001) кадров/сек
    Стандарт вещания : NTSC
    Цветовое пространство : YUV
    Субдискретизация насыщенности : 4:2:0
    Битовая глубина : 8 бит
    Тип развёртки : Прогрессивная
    Бит/(Пиксели*Кадры) : 0.236
    Размер потока : 6,51 Гбайт (96%)
    Заголовок : www.60-fps.org
    Язык : English
    Default : Да
    Forced : Нет
    Цветовой диапазон : Limited
    Основные цвета : BT.601 NTSC
    Характеристики трансфера : BT.601
    Коэффициенты матрицы : BT.601
    Аудио
    Идентификатор : 2
    Формат : AC-3
    Формат/Информация : Audio Coding 3
    Режим смешивания : Header stripping
    Идентификатор кодека : A_AC3
    Продолжительность : 1 ч. 36 м.
    Вид битрейта : Постоянный
    Битрейт : 192 Кбит/сек
    Каналы : 2 канала
    Расположение каналов : Front: L R
    Частота : 48,0 КГц
    Частота кадров : 31,250 кадров/сек (1536 SPF)
    Битовая глубина : 16 бит
    Метод сжатия : С потерями
    Размер потока : 133 Мбайт (2%)
    Заголовок : HDrezka Studio
    Язык : Russian
    ServiceKind/String : Complete Main
    Default : Да
    Forced : Нет
    Текст #1
    Идентификатор : 3
    Формат : UTF-8
    Идентификатор кодека : S_TEXT/UTF8
    Идентификатор кодека/Информация : UTF-8 Plain Text
    Заголовок : Full
    Язык : English
    Default : Нет
    Forced : Нет
    Текст #2
    Идентификатор : 4
    Формат : UTF-8
    Идентификатор кодека : S_TEXT/UTF8
    Идентификатор кодека/Информация : UTF-8 Plain Text
    Заголовок : SDH
    Язык : English
    Default : Нет
    Forced : Нет

    Release was prepared by 60 - fps

  2. Longevity:
    3 years
    Posts:
    22
    Gender:
    Male
    Ноль % скачал. Три дня никто не раздаёт.
    ps - Позвать скачавших нажимал.
    18-Sep-2018 09:56 (after 1 month 24 days)
  3. Longevity:
    3 years 3 months
    Posts:
    1044
    Gender:
    Male
    10234Ноль % скачал. Три дня никто не раздаёт.
    ps - Позвать скачавших нажимал.
    Качай FullHD версию, эта раздача скорее всего теперь мёртвая... !
    При смене сервера и передаче домена,не успели скачать эту раздачу и теперь восстановить не получиться... !
    18-Sep-2018 10:21 (after 25 minutes)


You cannot post new topics in this forum
You cannot reply to topics in this forum
You cannot edit your posts in this forum
You cannot delete your posts in this forum
You cannot vote in polls in this forum
You cannot attach files in this forum
You cannot download files in this forum