[Цитировать]
Kryl

«Мужество бессмертно»- Информация
Название: Тор
Оригинальное название: Thor
Год выхода: 2011
Жанр: фэнтези, боевик, приключения
Режиссер: Кеннет Брана
Сценарий: Эшли Миллер, Зак Стенц, Дон Пэйн
Продюсер: Кевин Файги, Виктория Алонсо, Луис Д’Эспозито
В ролях: Крис Хемсворт, Натали Портман, Энтони Хопкинс, Том Хиддлстон, Стеллан Скарсгард, Кэт Деннингс, Кларк Грегг, Идрис Эльба, Колм Фиор, Рэй Стивенсон и др.
--Сюжет:
Эпическое приключение происходит как на нашей планете Земля, так и в королевстве богов Асгарде. В центре истории — Могучий Тор, сильный, но высокомерный воин, чьи безрассудные поступки возрождают древнюю войну в Асгарде. Тора отправляют в ссылку на Землю, лишают сил и заставляют жить среди обычных людей в качестве наказания…- - Страна: США
Продолжительность: 01:54:50

Файл
Кодек: MPEG4/ISO/AVC H.264
Формат: MKV
Качество: BDRip 1080p | 60 fps
Видео: 1920 x 816 (2.353) | 59.940 fps | 20.0 Мбит/сек
Аудио 1: AC3 | 5.1 | 48 kHz | 640 kbps | 16 bit | Дубляж |
Аудио 2: AC3 | 5.1 | 48 kHz | 640 kbps | 16 bit | ENG |
Субтитры: Русские, английские

MedifInfo

Видео
Идентификатор : 1
Формат : AVC
Формат/Информация : Advanced Video Codec
Профиль формата : High@L4.2
Параметр CABAC формата : Да
Параметр ReFrames формата : 3 кадра
Параметр GOP формата : M=3, N=72
Идентификатор кодека : V_MPEG4/ISO/AVC
Продолжительность : 1 ч. 54 м.
Вид битрейта : Переменный
Битрейт : 19,2 Мбит/сек
Максимальный битрейт : 20,0 Мбит/сек
Ширина : 1920 пикселей
Высота : 816 пикселей
Соотношение сторон : 2,35:1
Режим частоты кадров : Постоянный
Частота кадров : 59,880 кадров/сек
Частота кадров в оригинале : 59,940 кадров/сек
Стандарт вещания : PAL
Цветовое пространство : YUV
Субдискретизация насыщенности : 4:2:0
Битовая глубина : 8 бит
Тип развёртки : Прогрессивная
Бит/(Пиксели*Кадры) : 0.205
Размер потока : 15,4 Гбайт (92%)
Заголовок : www.60-fps.org
Язык : English
Default : Да
Forced : Нет
Основные цвета : BT.709
Характеристики трансфера : BT.709
Коэффициенты матрицы : BT.709
colour_range : Limited
Аудио #1
Идентификатор : 2
Формат : AC-3
Формат/Информация : Audio Coding 3
Расширение режима : CM (complete main)
Параметр Endianness формата : Big
Идентификатор кодека : A_AC3
Продолжительность : 1 ч. 54 м.
Вид битрейта : Постоянный
Битрейт : 640 Кбит/сек
Каналы : 6 каналов
Расположение каналов : Front: L C R, Side: L R, LFE
Частота : 48,0 КГц
Битовая глубина : 16 бит
Метод сжатия : С потерями
Размер потока : 526 Мбайт (3%)
Заголовок : Дубляж
Язык : Russian
Default : Да
Forced : Нет
Аудио #2
Идентификатор : 3
Формат : AC-3
Формат/Информация : Audio Coding 3
Расширение режима : CM (complete main)
Параметр Endianness формата : Big
Идентификатор кодека : A_AC3
Продолжительность : 1 ч. 54 м.
Вид битрейта : Постоянный
Битрейт : 640 Кбит/сек
Каналы : 6 каналов
Расположение каналов : Front: L C R, Side: L R, LFE
Частота : 48,0 КГц
Битовая глубина : 16 бит
Метод сжатия : С потерями
Размер потока : 526 Мбайт (3%)
Заголовок : ENG
Язык : English
Default : Нет
Forced : Нет
Текст #1
Идентификатор : 4
Формат : UTF-8
Идентификатор кодека : S_TEXT/UTF8
Идентификатор кодека/Информация : UTF-8 Plain Text
Язык : Russian
Default : Нет
Forced : Нет
Текст #2
Идентификатор : 5
Формат : UTF-8
Идентификатор кодека : S_TEXT/UTF8
Идентификатор кодека/Информация : UTF-8 Plain Text
Язык : English
Default : Нет
Forced : Нет
Меню
00:00:00.000 : :Chapter 01
00:10:38.137 : :Chapter 02
00:17:33.135 : :Chapter 03
00:26:02.602 : :Chapter 04
00:32:28.196 : :Chapter 05
00:37:28.412 : :Chapter 06
00:42:14.198 : :Chapter 07
00:52:10.377 : :Chapter 08
01:01:24.972 : :Chapter 09
01:08:45.538 : :Chapter 10
01:15:39.159 : :Chapter 11
01:21:19.249 : :Chapter 12
01:30:35.346 : :Chapter 13
01:40:58.177 : :Chapter 14
01:45:13.724 : :Chapter 15
01:53:06.196 : :Chapter 16
01:54:50.425 : :
Киношка сделана по заказу пользователя
badika19911992

Релиз подготовлен 60 - fps

[60-fps.org].t1986.torrent
Торрент: Зарегистрирован [ 2016-04-12 15:32 ] · F5C88F8C615549C5ECBFD6CAC0423C863076FC86

Скачать .torrent

Скачать

42 KB

Статус: проверено
Скачан: 155 раз
Поблагодарили:
Размер: 16,8 GB
 
Похожие Темы

[Цитировать]
demon93

Халк 1 и 2 будет?)

[Цитировать]
Kryl

5684Халк 1 и 2 будет?)
если кто нибудь закажет Улыбаюсь

[Цитировать]
Danya.Kholodny

Встаньте на раздачу. 1 сид и всё, ну не серьёзно же

[Цитировать]
kaomoneus

Парни, не могу скачать :-( 10% недоступно. Раздайте полный файл у кого есть, пожалуйста.
 
Показать сообщения:    

Текущее время: 20-Фев 23:15

Часовой пояс: UTC + 3


Вы не можете начинать темы
Вы не можете отвечать на сообщения
Вы не можете редактировать свои сообщения
Вы не можете удалять свои сообщения
Вы не можете голосовать в опросах
Вы не можете прикреплять файлы к сообщениям
Вы можете скачивать файлы