VIP

Аватар / Avatar (2009) BDRip 1080p | 60 fps Доктор Стрэндж / Doctor Strange (2016) BDRip 1080p | 60 fps Капитан Марвел / Captain Marvel (2019) BDRip 1080p | 60 fps Тор: Рагнарёк / Thor: Ragnarok (2017) BDRip 1080p | 60 fps Аквамен / Aquaman (2018) BDRip 1080p | IMAX | 60 fps Алита: Боевой ангел / Alita: Battle Angel (2019) BDRip 1080p | 60 fps Мстители: Финал / Avengers: Endgame (2019) BDRip 1080p | 60 fps Мстители: Финал / Avengers: Endgame (2019) BDRip 720p | 60 fps
  1. Longevity:
    5 years
    Posts:
    2417
    Gender:
    Male
    «No Hammer. No Problem» Информация
    Название: Тор: Рагнарёк
    Оригинальное название: Thor: Ragnarok
    Год выхода: 2017
    Жанр: Фантастика, боевик, комедия, приключения
    Режиссер: Тайка Вайтити
    Сценарий: Эрик Пирсон, Крэйг Кайл
    Продюсер: Виктория Алонсо, Брайан Чапек
    В ролях: Крис Хемсворт, Том Хиддлстон, Кейт Бланшетт, Идрис Эльба, Джефф Голдблюм, Тесса Томпсон, Карл Урбан, Марк Руффало, Энтони Хопкинс, Бенедикт Камбербэтч

    Сюжет:
    После принуждения к миру Альтрона и установления демократии в Соковии Тор отправляется в дальний вояж по Вселенной на поиски Камней Бесконечности. Вдоволь повеселившись и отыскав только лишь приключения на свой молот, бог грома возвращается в Асгард. Там он застает результаты эффективного правления своего брата Локи, который не только вероломно захватил трон, но и ударными темпами приближает конец света. Тем временем, из вечного заточения вырывается богиня смерти - Хела, много лет назад низвергнутая туда Одином за перегибы на местах. Она тут же начинает нехорошо нагнетать обстановку, тлетворно на всех влиять и лить воду на мельницу врагов асгардского народа. И теперь истинный правитель Асгарда должен овладеть внутренним источником силы, объединиться со старым другом с прежней работы и покончить с анархо-кулацким развратом в девяти мирах.

    Страна: США
    Продолжительность: 02:10:31

    Файл
    Кодек: H.264
    Формат: MKV
    Качество: BDRip 1080p | 60 fps
    Видео: 1920 x 804 (2.388) | 59.940 fps | 25.0 Мбит/сек
    Аудио 01: AC3 | 5.1 | 48 kHz | 384 kbps | 16 bit | Дубляж - iTunes |
    Аудио 02: AC3 | 5.1 | 48 kHz | 448 kbps | 16 bit | english |
    Субтитры: Русские (форсированные, полные), английские

    MedifInfo

    Видео
    Идентификатор : 1
    Формат : AVC
    Формат/Информация : Advanced Video Codec
    Профиль формата : High@L4.1
    Параметр CABAC формата : Да
    Параметр ReFrames формата : 5 кадров
    Идентификатор кодека : V_MPEG4/ISO/AVC
    Продолжительность : 2 ч. 10 м.
    Битрейт : 25,0 Мбит/сек
    Ширина : 1920 пикселей
    Высота : 804 пикселя
    Соотношение сторон : 2,40:1
    Режим частоты кадров : Постоянный
    Частота кадров : 59,880 кадров/сек
    Частота кадров в оригинале : 59,940 кадров/сек
    Цветовое пространство : YUV
    Субдискретизация насыщенности : 4:2:0
    Битовая глубина : 8 бит
    Тип развёртки : Прогрессивная
    Бит/(Пиксели*Кадры) : 0.270
    Размер потока : 22,3 Гбайт (95%)
    Заголовок : www.60-fps.org
    Библиотека кодирования : x264 core 152 r2851 ba24899
    Настройки программы : cabac=1 / ref=5 / deblock=1:-3:-3 / analyse=0x3:0x113 / me=hex / subme=8 / psy=1 / psy_rd=1.00:0.25 / mixed_ref=1 / me_range=16 / chroma_me=1 / trellis=2 / 8x8dct=1 / cqm=0 / deadzone=6,6 / fast_pskip=1 / chroma_qp_offset=-4 / threads=12 / lookahead_threads=2 / sliced_threads=0 / nr=0 / decimate=0 / interlaced=0 / bluray_compat=0 / constrained_intra=0 / bframes=3 / b_pyramid=2 / b_adapt=1 / b_bias=0 / direct=3 / weightb=1 / open_gop=0 / weightp=2 / keyint=599 / keyint_min=59 / scenecut=40 / intra_refresh=0 / rc_lookahead=50 / rc=2pass / mbtree=1 / bitrate=24999 / ratetol=1.0 / qcomp=0.80 / qpmin=0 / qpmax=69 / qpstep=4 / cplxblur=20.0 / qblur=0.5 / vbv_maxrate=62500 / vbv_bufsize=78125 / nal_hrd=none / filler=0 / ip_ratio=1.10 / aq=1:0.50
    Default : Да
    Forced : Нет
    Аудио #1
    Идентификатор : 2
    Формат : AC-3
    Формат/Информация : Audio Coding 3
    Расширение режима : CM (complete main)
    Параметр Endianness формата : Big
    Идентификатор кодека : A_AC3
    Продолжительность : 2 ч. 10 м.
    Вид битрейта : Постоянный
    Битрейт : 384 Кбит/сек
    Каналы : 6 каналов
    Расположение каналов : Front: L C R, Side: L R, LFE
    Частота : 48,0 КГц
    Битовая глубина : 16 бит
    Метод сжатия : С потерями
    Размер потока : 358 Мбайт (1%)
    Заголовок : Дубляж - iTunes
    Язык : Russian
    Default : Да
    Forced : Нет
    Аудио #2
    Идентификатор : 3
    Формат : AC-3
    Формат/Информация : Audio Coding 3
    Расширение режима : CM (complete main)
    Параметр Endianness формата : Big
    Идентификатор кодека : A_AC3
    Продолжительность : 2 ч. 10 м.
    Вид битрейта : Постоянный
    Битрейт : 448 Кбит/сек
    Каналы : 6 каналов
    Расположение каналов : Front: L C R, Side: L R, LFE
    Частота : 48,0 КГц
    Битовая глубина : 16 бит
    Метод сжатия : С потерями
    Размер потока : 418 Мбайт (2%)
    Заголовок : english
    Язык : English
    Default : Нет
    Forced : Нет
    Текст #1
    Идентификатор : 4
    Формат : UTF-8
    Идентификатор кодека : S_TEXT/UTF8
    Идентификатор кодека/Информация : UTF-8 Plain Text
    Заголовок : Full
    Язык : Russian
    Default : Нет
    Forced : Нет
    Текст #2
    Идентификатор : 5
    Формат : UTF-8
    Идентификатор кодека : S_TEXT/UTF8
    Идентификатор кодека/Информация : UTF-8 Plain Text
    Заголовок : Full
    Язык : Russian
    Default : Нет
    Forced : Нет
    Текст #3
    Идентификатор : 6
    Формат : UTF-8
    Идентификатор кодека : S_TEXT/UTF8
    Идентификатор кодека/Информация : UTF-8 Plain Text
    Заголовок : Full
    Язык : English
    Default : Нет
    Forced : Нет
    Текст #4
    Идентификатор : 7
    Формат : UTF-8
    Идентификатор кодека : S_TEXT/UTF8
    Идентификатор кодека/Информация : UTF-8 Plain Text
    Заголовок : Forced
    Язык : Russian
    Default : Да
    Forced : Да
    Меню
    00:00:00.000 : en:The Great Prophecy
    00:06:20.672 : en:The Tragedy Of Loki Of Asgard
    00:14:11.642 : en:A Worthy Inclusion
    00:22:12.873 : en:The Goddess Of Death
    00:26:43.060 : en:"Are You A Fighter, Or Are You Food?"
    00:31:29.721 : en:Heiress Apparent
    00:35:03.935 : en:The Grandmaster
    00:42:49.734 : en:The Eternal Flame
    00:48:31.534 : en:The Contest Of Champions
    00:59:38.784 : en:The Resistance
    01:07:57.907 : en:Hotheaded Fools
    01:17:30.604 : en:The Revengers
    01:27:25.323 : en:"The Revolution Has Begun"
    01:36:08.721 : en:Ready For War
    01:42:35.733 : en:"Asgard Is Not A Place"
    01:49:19.887 : en:"What Were You The God Of Again?"
    01:54:57.599 : en:Ragnarok
    02:00:37.522 : en:End Credits

    Release was prepared by 60 - fps



    Last edited by Kryl on 2018-02-23 21:41; edited 1 time in total
  2. Longevity:
    3 years 1 month
    Posts:
    995
    Gender:
    Male
    Ооооо еееее,ждём,не дождёмся... !
    23-Feb-2018 18:23 (after 8 hours)
  3. Longevity:
    2 years 4 months
    Posts:
    2
    Gender:
    Unknown
    хм, второй день не могу скачать toorent файл: Could not add passkey выдает
    03-Mar-2018 21:28 (after 8 days)
  4. Longevity:
    5 years
    Posts:
    2417
    Gender:
    Male
    9405хм, второй день не могу скачать toorent файл: Could not add passkey выдает
    сейчас попробуйте , проблема у вас ....
    03-Mar-2018 22:05 (after 36 minutes)
  5. Longevity:
    2 years 4 months
    Posts:
    2
    Gender:
    Unknown
    9406
    9405хм, второй день не могу скачать toorent файл: Could not add passkey выдает
    сейчас попробуйте , проблема у вас ....
    все получилось, спасибо
    04-Mar-2018 09:44 (after 11 hours)
  6. Longevity:
    4 years 2 months
    Posts:
    149
    Gender:
    Male
    Огромное Спасибо :)
    20-Mar-2018 10:35 (after 16 days)
  7. Longevity:
    1 year 5 months
    Posts:
    4
    Gender:
    Unknown
    Английский язык
    17-Apr-2018 15:26 (after 28 days)
  8. Longevity:
    2 years 9 months
    Posts:
    46
    Gender:
    Unknown
    Kryl, Позвольте спросить: я раздавал вчера и раздаю сейчас. Зашел в свой профиль и был неприятно удивлен: статистика по нулям. Может я чего-то не понимаю? Очень хотелось бы разобраться, каким образом ведётся эта статистика. Помогите пожалуйста. Бывает, что я захожу в свой профиль на смартфоне и скачиваю торрент файл, а ставлю его на закачку на своем компе. Может в этом все дело? Хотя, мне кажется, не должно...
    23-Apr-2018 20:06 (after 6 days)


You cannot post new topics in this forum
You cannot reply to topics in this forum
You cannot edit your posts in this forum
You cannot delete your posts in this forum
You cannot vote in polls in this forum
You cannot attach files in this forum
You cannot download files in this forum