[Цитировать]
Kryl

Тор 2: Царство тьмы / Thor: The Dark World (2013) BDRip 1080p | 60 fps- Информация
Название: Тор 2: Царство тьмы
Оригинальное название: Thor: The Dark World
Год выхода: 2013
Жанр: фэнтези, боевик, приключения
Режиссер: Алан Тейлор
Сценарий: Кристофер Йост, Кристофер Маркус, Стивен МакФили
Продюсер: Кевин Файги, Виктория Алонсо, Джэми Кристофер
В ролях: Крис Хемсворт, Натали Портман, Том Хиддлстон, Энтони Хопкинс, Кристофер Экклстон, Джейми Александер, Закари Левай, Рэй Стивенсон, Таданобу Асано, Идрис Эльба
--Сюжет:
Продолжение приключений одного из членов команды Мстителей, скандинавского бога Тора, которому на этот раз в одиночку предстоит защитить Землю и все девять миров от нашествия неизвестного врага.
Могучему Тору предстоит вновь сразиться за восстановление порядка в галактике, встретившись лицом к лицу с древней инопланетной расой, ведомой злодеем Малекитом, жаждущим установить в девяти мирах власть тьмы. Столкнувшись с врагом, более могущественным чем сам Один и всё воинство Асгарда, Тор должен собрать силы для решающей битвы. Его ждёт опасное путешествие и долгожданная встреча со своей земной возлюбленной Джейн Фостер. Сможет ли Тор рискнуть самым дорогим, чтобы не дать тьме воцариться на просторах вселенной?
- - Страна: США
Продолжительность: 01:52:03

Файл
Кодек: MPEG4/ISO/AVC H.264
Формат: MKV
Качество: BDRip 1080p | 60 fps
Видео: 1920 x 800 (2.400) | 59.940 fps | 20.0 Мбит/сек
Аудио 1: AC3 | 5.1 | 48 kHz | 640 kbps | 16 bit | Дубляж |
Аудио 2: AC3 | 5.1 | 48 kHz | 448 kbps | 16 bit | Авторский (одноголосый) А. Гаврилов |
Аудио 3: AC3 | 5.1 | 48 kHz | 640 kbps | 16 bit | ENG |
Субтитры: Русские (форсированные, полные) + Английские (полные)

MedifInfo

Видео
Идентификатор : 1
Формат : AVC
Формат/Информация : Advanced Video Codec
Профиль формата : High@L4.2
Параметр CABAC формата : Да
Параметр ReFrames формата : 3 кадра
Идентификатор кодека : V_MPEG4/ISO/AVC
Продолжительность : 1 ч. 52 м.
Вид битрейта : Переменный
Битрейт : 19,4 Мбит/сек
Максимальный битрейт : 20,0 Мбит/сек
Ширина : 1920 пикселей
Высота : 800 пикселей
Соотношение сторон : 2,40:1
Режим частоты кадров : Постоянный
Частота кадров : 59,880 кадров/сек
Частота кадров в оригинале : 59,940 кадров/сек
Стандарт вещания : PAL
Цветовое пространство : YUV
Субдискретизация насыщенности : 4:2:0
Битовая глубина : 8 бит
Тип развёртки : Прогрессивная
Бит/(Пиксели*Кадры) : 0.211
Размер потока : 15,2 Гбайт (90%)
Заголовок : www.60-fps.org
Язык : English
Default : Да
Forced : Нет
Основные цвета : BT.709
Характеристики трансфера : BT.709
Коэффициенты матрицы : BT.709
colour_range : Limited
Аудио #1
Идентификатор : 2
Формат : AC-3
Формат/Информация : Audio Coding 3
Расширение режима : CM (complete main)
Параметр Endianness формата : Big
Идентификатор кодека : A_AC3
Продолжительность : 1 ч. 52 м.
Вид битрейта : Постоянный
Битрейт : 640 Кбит/сек
Каналы : 6 каналов
Расположение каналов : Front: L C R, Side: L R, LFE
Частота : 48,0 КГц
Битовая глубина : 16 бит
Метод сжатия : С потерями
Размер потока : 513 Мбайт (3%)
Заголовок : Дубляж
Язык : Russian
Default : Да
Forced : Нет
Аудио #2
Идентификатор : 3
Формат : AC-3
Формат/Информация : Audio Coding 3
Расширение режима : CM (complete main)
Параметр Endianness формата : Big
Идентификатор кодека : A_AC3
Продолжительность : 1 ч. 52 м.
Вид битрейта : Постоянный
Битрейт : 448 Кбит/сек
Каналы : 6 каналов
Расположение каналов : Front: L C R, Side: L R, LFE
Частота : 48,0 КГц
Битовая глубина : 16 бит
Метод сжатия : С потерями
Размер потока : 359 Мбайт (2%)
Заголовок : А.Гаврилов
Язык : Russian
Default : Нет
Forced : Нет
Аудио #3
Идентификатор : 4
Формат : AC-3
Формат/Информация : Audio Coding 3
Расширение режима : CM (complete main)
Параметр Endianness формата : Big
Идентификатор кодека : A_AC3
Продолжительность : 1 ч. 52 м.
Вид битрейта : Постоянный
Битрейт : 640 Кбит/сек
Каналы : 6 каналов
Расположение каналов : Front: L C R, Side: L R, LFE
Частота : 48,0 КГц
Битовая глубина : 16 бит
Метод сжатия : С потерями
Размер потока : 513 Мбайт (3%)
Заголовок : Eng
Язык : English
Default : Нет
Forced : Нет
Текст #1
Идентификатор : 5
Формат : UTF-8
Идентификатор кодека : S_TEXT/UTF8
Идентификатор кодека/Информация : UTF-8 Plain Text
Заголовок : Rus Forced
Язык : Russian
Default : Да
Forced : Да
Текст #2
Идентификатор : 6
Формат : UTF-8
Идентификатор кодека : S_TEXT/UTF8
Идентификатор кодека/Информация : UTF-8 Plain Text
Заголовок : Rus
Язык : Russian
Default : Нет
Forced : Нет
Текст #3
Идентификатор : 7
Формат : UTF-8
Идентификатор кодека : S_TEXT/UTF8
Идентификатор кодека/Информация : UTF-8 Plain Text
Заголовок : Eng
Язык : English
Default : Нет
Forced : Нет
Меню
00:00:00.000 : :Chapter 01
00:06:14.499 : :Chapter 02
00:13:06.369 : :Chapter 03
00:18:41.829 : :Chapter 04
00:24:57.663 : :Chapter 05
00:29:08.497 : :Chapter 06
00:41:34.200 : :Chapter 07
00:49:41.061 : :Chapter 08
00:55:56.979 : :Chapter 09
01:00:09.731 : :Chapter 10
01:08:13.506 : :Chapter 11
01:12:40.731 : :Chapter 12
01:21:35.307 : :Chapter 13
01:26:22.928 : :Chapter 14
01:33:59.634 : :Chapter 15
01:38:32.490 : :Chapter 16
01:41:50.354 : :Chapter 17
Киношка сделана по заказу пользователя
badika19911992

Релиз подготовлен 60 - fps

[Цитировать]
Лёва

Добрый вечер , похоже badika19911992 отдыхает , скачаю встану на раздачу , а можно Одинокий рейнджер 1080р выложить ? Если есть возможность. Я всё парюсь с настройками Sony Vegas Pro 13 а этого фильма нет, и некто не делает ! Привет

[Цитировать]
Kryl

Лёва,
Привет.
Киношки делаю только на заказ или что самому интересно Улыбаюсь

[Цитировать]
badika19911992

Да Смеюсь

[Цитировать]
Logaeth

так а что теперь без бабок качать нельзя?

[Цитировать]
Kryl

5708так а что теперь без бабок качать нельзя?
Ну если вы считаете 50р в месяц баблом ...... то вы тогда правы ..

[Цитировать]
Logaeth

так а зачем мне платить деньги тем кто не имеет прав на распространение этих фильмов. я лучше заплачу их тем кому они действительно принадлежат.

[Цитировать]
Kryl

5748так а зачем мне платить деньги тем кто не имеет прав на распространение этих фильмов. я лучше заплачу их тем кому они действительно принадлежат.
Так вперед ... идите и платите )) Для вас переснимут в 60 fps Смеюсь Смеюсь Смеюсь

[Цитировать]
WhiteHat

Большое спасибо за фильм!!!

[Цитировать]
Danya.Kholodny

Встаньте на раздачу. 1 сид и всё, ну не серьёзно же!
 
Показать сообщения:    

Текущее время: 21-Сен 04:23

Часовой пояс: UTC + 3


Вы не можете начинать темы
Вы не можете отвечать на сообщения
Вы не можете редактировать свои сообщения
Вы не можете удалять свои сообщения
Вы не можете голосовать в опросах
Вы не можете прикреплять файлы к сообщениям
Вы не можете скачивать файлы