Тор: Рагнарёк / Thor: Ragnarok (2017) BDRip 1080p | 60 fps Стражи Галактики. Часть 2 / Guardians of the Galaxy Vol. 2 (2017) BDRip 1080p | 60 fps Мстители: Эра Альтрона / Avengers: Age of Ultron (2015) BDRip 1080p | 60 fps Валериан и город тысячи планет / Valerian and the City of a Thousand Planets (2017) BDRip 1080p | 60 fps Первый мститель: Противостояние / Captain America: Civil War (2016) BDRip 1080p | 60 fps Человек-паук: Возвращение домой / Spider-Man: Homecoming (2017) BDRip 1080p | 60 fps Мстители / The Avengers (2012) BDRip 720p | 60 fps Доктор Стрэндж / Doctor Strange (2016) BDRip 1080p | 60 fps
  1. Стаж:
    1 год 11 месяцев
    Сообщений:
    501
    Пол:
    Мужской
    «Her legend begins»- Информация
    Название: Tomb Raider: Лара Крофт
    Оригинальное название: Tomb Raider
    Год выхода: 2018
    Жанр: фэнтези, боевик, приключения
    Режиссер: Роар Утхауг
    Сценарий: Женева Робертсон-Дуорет, Алистер Сиддонс, Ивэн Догерти
    Продюсер: Грэм Кинг, Женевьева Хофмайер, Ной Хьюз
    В ролях: Алисия Викандер,Доминик Уэст,Уолтон Гоггинс,Дэниэл Ву,Кристин Скотт Томас,Дерек Джекоби,Александр Виллауме,Тамер Барджаг,Эдриан Коллинз,Кинэн Эррисон
    --Сюжет:
    Лара Крофт — весьма самостоятельная дочь эксцентричного искателя приключений, который пропал, едва она стала подростком. Теперь ей двадцать один, она бесцельно проживает свою жизнь, курьером рассекая на байке по забитым улицам восточного Лондона. Решительно настроенная пробиться сама, она отказывается брать на себя руководство глобальной империей отца, столь же категорично отвергая мысль о том, что он действительно пропал. Слыша советы о том, что ей нужно смириться с этим фактом и жить дальше после семи лет бесплодных поисков, Лара уже и сама не понимает, что же заставляет ее распутывать обстоятельства его таинственного исчезновения.- Страна: Великобритания, США
    Продолжительность: 01:57:50

    Файл
    Кодек: MPEG4/ISO/AVC/H.264
    Формат: MKV
    Качество: BDRip 1080p | 60 fps
    Видео: 1920 x 800 (2.400) | 59.940 fps | 23.9 Мбит/сек
    Аудио 1: AC-3 | 5.1 | 48 kHz | 448 Кбит/сек | 16 bit | Дубляж (Лицензия) |
    Аудио 2: Dolby Atmos / TrueHD| 7.1 | 48 kHz | 3214 Кбит/сек / 5520 Кбит/сек | | Оригинал
    Субтитры:

    MedifInfo

    Видео
    Идентификатор : 1
    Формат : AVC
    Формат/Информация : Advanced Video Codec
    Профиль формата : High@L4.1
    Параметр CABAC формата : Да
    Параметр ReFrames формата : 5 кадров
    Идентификатор кодека : V_MPEG4/ISO/AVC
    Продолжительность : 1 ч. 57 м.
    Битрейт : 23,9 Мбит/сек
    Ширина : 1920 пикселей
    Высота : 800 пикселей
    Соотношение сторон : 2,40:1
    Режим частоты кадров : Постоянный
    Частота кадров : 59,940 (60000/1001) кадров/сек
    Цветовое пространство : YUV
    Субдискретизация насыщенности : 4:2:0
    Битовая глубина : 8 бит
    Тип развёртки : Прогрессивная
    Бит/(Пиксели*Кадры) : 0.260
    Размер потока : 19,7 Гбайт (86%)
    Заголовок : Талямба: 60-fps.org
    Библиотека кодирования : x264 core 146 r2538 121396c
    Настройки программы : cabac=1 / ref=5 / deblock=1:-3:-3 / analyse=0x3:0x113 / me=umh / subme=8 / psy=1 / psy_rd=1.00:0.25 / mixed_ref=1 / me_range=32 / chroma_me=1 / trellis=1 / 8x8dct=1 / cqm=0 / deadzone=6,6 / fast_pskip=1 / chroma_qp_offset=-4 / threads=12 / lookahead_threads=2 / sliced_threads=0 / nr=0 / decimate=0 / interlaced=0 / bluray_compat=0 / constrained_intra=0 / bframes=3 / b_pyramid=2 / b_adapt=2 / b_bias=0 / direct=3 / weightb=1 / open_gop=0 / weightp=2 / keyint=599 / keyint_min=59 / scenecut=40 / intra_refresh=0 / rc_lookahead=50 / rc=2pass / mbtree=1 / bitrate=23900 / ratetol=1.0 / qcomp=0.80 / qpmin=0 / qpmax=69 / qpstep=4 / cplxblur=20.0 / qblur=0.5 / vbv_maxrate=50000 / vbv_bufsize=50000 / nal_hrd=none / filler=0 / ip_ratio=1.10 / aq=1:0.50
    Язык : English
    Default : Да
    Forced : Нет
    Аудио #1
    Идентификатор : 2
    Формат : AC-3
    Формат/Информация : Audio Coding 3
    Расширение режима : CM (complete main)
    Параметр Endianness формата : Big
    Идентификатор кодека : A_AC3
    Продолжительность : 1 ч. 57 м.
    Вид битрейта : Постоянный
    Битрейт : 448 Кбит/сек
    Каналы : 6 каналов
    Расположение каналов : Front: L C R, Side: L R, LFE
    Частота : 48,0 КГц
    Частота кадров : 31,250 кадров/сек (1536 spf)
    Битовая глубина : 16 бит
    Метод сжатия : С потерями
    Размер потока : 378 Мбайт (2%)
    Заголовок : Дубляж (Лицензия)
    Язык : Russian
    Default : Да
    Forced : Да
    Аудио #2
    Идентификатор : 3
    Формат : Atmos / TrueHD
    Идентификатор кодека : A_TRUEHD
    Продолжительность : 1 ч. 57 м.
    Вид битрейта : Переменный
    Битрейт : 3214 Кбит/сек
    Максимальный битрейт : 5520 Кбит/сек
    Каналы : Object Based / 8 каналов
    Расположение каналов : Object Based / Front: L C R, Side: L R, Back: L R, LFE
    Частота : / 48,0 КГц
    Частота кадров : 1200,000 кадров/сек (40 spf)
    Метод сжатия : Без потерь
    Размер потока : 2,65 Гбайт (12%)
    Заголовок : Оригинал
    Язык : English
    Default : Нет
    Forced : Нет
    Текст #1
    Идентификатор : 4
    Формат : UTF-8
    Идентификатор кодека : S_TEXT/UTF8
    Идентификатор кодека/Информация : UTF-8 Plain Text
    Продолжительность : 1 ч. 56 м.
    Битрейт : 1 бит/сек
    Count of elements : 36
    Размер потока : 1,35 Кбайт (0%)
    Заголовок : Forced
    Язык : Russian
    Default : Да
    Forced : Да
    Текст #2
    Идентификатор : 5
    Формат : UTF-8
    Идентификатор кодека : S_TEXT/UTF8
    Идентификатор кодека/Информация : UTF-8 Plain Text
    Продолжительность : 1 ч. 56 м.
    Битрейт : 40 бит/сек
    Count of elements : 859
    Размер потока : 34,9 Кбайт (0%)
    Заголовок : Full
    Язык : Russian
    Default : Нет
    Forced : Нет
    Текст #3
    Идентификатор : 6
    Формат : UTF-8
    Идентификатор кодека : S_TEXT/UTF8
    Идентификатор кодека/Информация : UTF-8 Plain Text
    Продолжительность : 1 ч. 50 м.
    Битрейт : 29 бит/сек
    Count of elements : 859
    Размер потока : 24,1 Кбайт (0%)
    Заголовок : Full
    Язык : English
    Default : Нет
    Forced : Нет
    Текст #4
    Идентификатор : 7
    Формат : UTF-8
    Идентификатор кодека : S_TEXT/UTF8
    Идентификатор кодека/Информация : UTF-8 Plain Text
    Продолжительность : 1 ч. 50 м.
    Битрейт : 35 бит/сек
    Count of elements : 1121
    Размер потока : 28,5 Кбайт (0%)
    Заголовок : SDH
    Язык : English
    Default : Нет
    Forced : Нет
    Текст #5
    Идентификатор : 8
    Формат : UTF-8
    Идентификатор кодека : S_TEXT/UTF8
    Идентификатор кодека/Информация : UTF-8 Plain Text
    Продолжительность : 1 ч. 50 м.
    Битрейт : 49 бит/сек
    Count of elements : 1197
    Размер потока : 40,3 Кбайт (0%)
    Заголовок : SDH Colored
    Язык : English
    Default : Нет
    Forced : Нет
    Меню
    00:00:00.000 : en:00:00:00.000
    00:13:13.251 : en:00:13:13.251
    00:24:04.234 : en:00:24:04.234
    00:31:57.999 : en:00:31:57.999
    00:39:57.061 : en:00:39:57.061
    00:50:31.070 : en:00:50:31.070
    01:04:49.844 : en:01:04:49.844
    01:13:58.100 : en:01:13:58.100
    01:20:17.396 : en:01:20:17.396
    01:27:41.131 : en:01:27:41.131
    01:38:41.624 : en:01:38:41.624
    01:51:17.421 : en:01:51:17.421
  2. Стаж:
    1 год 11 месяцев
    Сообщений:
    501
    Пол:
    Мужской
    Лазил сейчас по сайтам и разным трекерам,нашёл так много гавнорелизеров Смеюсь до слёз там один умник делает рипы "типа в 60fps",блин я даже вам ссылку скину на его "сэмпл к фильму" Так вот,паренёк переконвертировал видео задублировал тупо кадры и у него в инфе о фильме появилась надпись 60fps,так он блин возомнил себя сразу таким чётким пацанчиком... ! Что же делать ГАВНОРЕЛИЗЕР ТЫ ! Палец
    Так вот,что я хочу этим сказать: "Ребята,не ведитесь на таких ГАВНОРЕЛИЗЕРОВ,качайте проверенный и качественный контент,мы знаем толк в своей работе и знаем как сделать качественное видео... !
    P.S. Качаем этот фильм и сравниваем с СЭМПЛОМ Гавнорелизеров... ! http://sendfile.su/1426077
    18-Июн-2018 02:11 (спустя 1 час 27 минут)


Вы не можете начинать темы
Вы не можете отвечать на сообщения
Вы не можете редактировать свои сообщения
Вы не можете удалять свои сообщения
Вы не можете голосовать в опросах
Вы не можете прикреплять файлы к сообщениям
Вы не можете скачивать файлы