«Ничто на Земле не сможет разлучить их»- Информация
Название: Титаник
Оригинальное название: Titanic
Год выхода: 1997
Жанр: драма, мелодрама
Режиссер: Джеймс Кэмерон
Сценарий: Джеймс Кэмерон
Продюсер: Джеймс Кэмерон, Джон Ландау, Памела Исли
В ролях: Леонардо ДиКаприо, Кейт Уинслет, Билли Зейн, Кэти Бэйтс, Фрэнсис Фишер, Глория Стюарт, Билл Пэкстон, Бернард Хилл, Дэвид Уорнер, Виктор Гарбер, Джонатан Хайд, Сьюзи Эймис, Льюис Абернати, Николас Каскон, Анатолий Сагалевич, Дэнни Нуччи, Джейсон Бэрри, Ивэн Стюарт, Йоан Гриффит, Джонатан Филлипс, Марк Линдсэй Чэпман, Ричард Грэхэм, Пол Брайтвелл, Рон Донаки, Эрик Браден, Шарлотта Чаттон, Бернард Фокс, Майкл Инсайн, Фанни Бретт, Дженетт Голдстин, Камилла Овербай Рус, Линда Кернс, Эми Джаипа, Мартин Джарвис, Розалинд Эйрс, Рошелль Роуз, Джонатан Эванс-Джонс, Брайан Уолш, Роки Тейлор, Александреа Оуенс, Саймон Крэйн, Эдва
--Сюжет:
Молодые влюбленные Джек и Роза находят друг друга в первом и последнем плавании «непотопляемого» Титаника. Они не могли знать, что шикарный лайнер столкнется с айсбергом в холодных водах Северной Атлантики, и их страстная любовь превратится в схватку со смертью…- - Страна: США
Продолжительность: 03:14:54

Файл
Кодек: MPEG4/ISO/AVC H.264
Формат: MKV
Качество: BDRip 1080p | 60 fps
Видео: 1920x1080 (16:9) | 60.000 fps | 17.6 Мбит/сек
Аудио 01: DTS | 5.1 | 48 kHz | 755 kbps | 16 bit | Дубляж CEE |
Аудио 02: AC3 | 5.1 | 48 kHz | 448 kbps | 16 bit | R5 (Отдельно в папке) |
Аудио 03: AC3 | 5.1 | 48 kHz | 448 kbps | 16 bit | НТВ+ (Отдельно в папке) |
Аудио 04: AC3 | 5.1 | 48 kHz | 384 kbps | 16 bit | Киномания (Отдельно в папке) |
Аудио 05: DTS | 5.1 | 48 kHz | 1510 kbps | 16 bit | Гланц и Королева (Отдельно в папке) |
Аудио 06: DTS | 5.1 | 48 kHz | 1510 kbps | 16 bit | Гаврилов (Отдельно в папке) |
Аудио 07: AC3 | 5.1 | 48 kHz | 448 kbps | 16 bit | Живов (Отдельно в папке) |
Аудио 08: AC3 | 2.0 | 48 kHz | 192 kbps | 16 bit | Визгунов (Отдельно в папке) |
Аудио 09: AC3 | 2.0 | 48 kHz | 192 kbps | 16 bit | Кашкин (Отдельно в папке) |
Аудио 10: AC3 | 2.0 | 48 kHz | 192 kbps | 16 bit | Антонов (Отдельно в папке) |
Аудио 11: AC3 | 5.1 | 48 kHz | 448 kbps | 16 bit | Украинский CEE |
Аудио 12: AC3 | 2.0 | 48 kHz | 192 kbps | 16 bit | Украинский 1+1 |
Аудио 13: AC3 | 2.0 | 48 kHz | 192 kbps | 16 bit | Украинский Новый канал |
Аудио 14: DTS | 5.1 | 48 kHz | 1510 kbps | 16 bit | English (Separately in the folder) |
Субтитры: русские (Форсированные Blu-ray CEE), русские (Полные Blu-ray CEE), русские (Полные R5), украинские (Форсированные Blu-ray CEE), украинские (Полные Blu-ray CEE), английские (Полные)

MedifInfo

Video
ID : 1
Format : AVC
Format/Info : Advanced Video Codec
Format profile : High@L4.2
Format settings, CABAC : Yes
Format settings, ReFrames : 3 frames
Codec ID : V_MPEG4/ISO/AVC
Duration : 3h 14mn
Bit rate mode : Variable
Bit rate : 17.6 Mbps
Maximum bit rate : 18.0 Mbps
Width : 1 920 pixels
Height : 1 080 pixels
Display aspect ratio : 16:9
Frame rate : 60.000 fps
Standard : NTSC
Color space : YUV
Chroma subsampling : 4:2:0
Bit depth : 8 bits
Scan type : Progressive
Bits/(Pixel*Frame) : 0.142
Stream size : 24.0 GiB (94%)
Language : English
Default : Yes
Forced : No
Color primaries : BT.709-5, BT.1361, IEC 61966-2-4, SMPTE RP177
Transfer characteristics : BT.709-5, BT.1361
Matrix coefficients : BT.709-5, BT.1361, IEC 61966-2-4 709, SMPTE RP177
Audio
ID : 2
Format : DTS
Format/Info : Digital Theater Systems
Codec ID : A_DTS
Duration : 3h 14mn
Bit rate mode : Constant
Bit rate : 755 Kbps
Channel(s) : 6 channels
Channel positions : Front: L C R, Side: L R, LFE
Sampling rate : 48.0 KHz
Bit depth : 24 bits
Compression mode : Lossy
Stream size : 1.03 GiB (4%)
Title : Дубляж
Language : Russian
Default : Yes
Forced : No
Text #1
ID : 3
Format : UTF-8
Codec ID : S_TEXT/UTF8
Codec ID/Info : UTF-8 Plain Text
Title : Форсированные Blu-ray CEE
Language : Russian
Default : Yes
Forced : No
Text #2
ID : 4
Format : UTF-8
Codec ID : S_TEXT/UTF8
Codec ID/Info : UTF-8 Plain Text
Title : Полные Blu-ray CEE
Language : Russian
Default : No
Forced : No
Text #3
ID : 5
Format : UTF-8
Codec ID : S_TEXT/UTF8
Codec ID/Info : UTF-8 Plain Text
Title : Полные R5
Language : Russian
Default : No
Forced : No
Text #4
ID : 6
Format : UTF-8
Codec ID : S_TEXT/UTF8
Codec ID/Info : UTF-8 Plain Text
Title : Форсированные Blu-ray CEE
Language : Ukrainian
Default : No
Forced : No
Text #5
ID : 7
Format : UTF-8
Codec ID : S_TEXT/UTF8
Codec ID/Info : UTF-8 Plain Text
Title : Полные Blu-ray CEE
Language : Ukrainian
Default : No
Forced : No
Text #6
ID : 8
Format : UTF-8
Codec ID : S_TEXT/UTF8
Codec ID/Info : UTF-8 Plain Text
Title : Полные
Language : English
Default : No
Forced : No
Menu
00:00:00.000 : en:Opening Credits
00:01:24.375 : en:Ghost Ship
00:04:39.988 : en:Into the Wreck
00:08:26.130 : en:The Keldysh
00:10:46.771 : en:The Woman in the Picture
00:12:52.646 : en:Old Rose Arrives
00:16:52.427 : en:Reflections of the Past
00:20:07.748 : en:Back to Titanic
00:23:38.875 : en:A Lucky Hand
00:26:26.543 : en:Leaving Port
00:29:03.366 : en:Cherbourg
00:29:37.525 : en:Ode to Titanic
00:34:59.930 : en:First Glance
00:36:48.622 : en:"You Jump, I Jump"
00:42:59.159 : en:An Invitation to Dinner
00:45:26.098 : en:The Heart of the Ocean
00:47:11.620 : en:Sketches and Stories
00:53:33.042 : en:Learning New Things
00:56:47.987 : en:Dinner with Jack
01:05:32.052 : en:A Real Party
01:10:19.965 : en:A Cold Breakfast
01:14:06.358 : en:Sunday Prayer
01:16:10.690 : en:"They've Got You Trapped"
01:19:59.043 : en:Flying
01:22:50.506 : en:"That Was the Last Time..."
01:23:40.056 : en:The Drawing
01:28:21.629 : en:"My Heart Was Pounding"
01:29:19.854 : en:"Find Her"
01:32:52.274 : en:Two Souls United
01:36:59.104 : en:"Iceberg Right Ahead!"
01:44:41.149 : en:An Honest Thief
01:46:21.040 : en:A Mathematical Certainty
01:47:58.846 : en:A Stricken Relationship
01:50:11.103 : en:Andrews Tells Rose
01:52:21.400 : en:Women and Children First
01:53:54.326 : en:Third Class Patience
01:55:21.830 : en:A Small Token of Appreciation
01:56:10.879 : en:"Goodbye, Mother"
01:57:53.232 : en:"Can Anybody Hear Me?"
02:06:38.340 : en:A View From the Lifeboats
02:08:49.971 : en:Third Class Panic
02:11:22.081 : en:Starting to Fall Apart
02:15:42.550 : en:"Get on the Boat, Rose"
02:19:43.457 : en:Cal Spurned
02:21:24.558 : en:Flooding Below Decks
02:25:28.760 : en:Two Tragic Bullets
02:27:28.422 : en:Questions of Character
02:29:07.270 : en:Captain Smith
02:29:56.695 : en:Nearer My God to Thee
02:33:31.534 : en:Shattered Dreams
02:36:52.360 : en:At the Siren
02:38:33.878 : en:Prayer for the Dying
02:40:34.665 : en:Death of Titanic
02:45:00.639 : en:Sea of Humanity
02:47:48.807 : en:In the Lifeboats
02:49:22.526 : en:The Promise
02:52:09.609 : en:"We Waited Too Long"
02:53:41.326 : en:"I'll Never Let Go"
02:57:53.495 : en:Never an Absolution
02:59:35.305 : en:The Carpathia
03:01:29.252 : en:Expedition's End
03:03:13.648 : en:Rose's Secret
03:04:57.877 : en:A Promise Dept
03:07:19.643 : en:End Credits

[Цитировать]
Konstantinus

Аудиодорожка 01 не DTS, a AC3 640kbps. Исправьте пожалуйста

[Цитировать]
mimok

5527Аудиодорожка 01 не DTS, a AC3 640kbps. Исправьте пожалуйста
в сэмпле DTS, с чего вы решили что AC3 ?
 
Показать сообщения:    

Текущее время: 08-Дек 19:09

Часовой пояс: UTC + 3


Вы не можете начинать темы
Вы не можете отвечать на сообщения
Вы не можете редактировать свои сообщения
Вы не можете удалять свои сообщения
Вы не можете голосовать в опросах
Вы не можете прикреплять файлы к сообщениям
Вы не можете скачивать файлы