Топ Топиков за 24 часа
 
Luis Fonsi - Despacito ft. Daddy Yankee (2017) WEBRip 1080p | 60 fps Jennifer Lopez feat. Gente de Zona - Ni Tu Ni Yo (2017) WEBRip 1080p | 60 fps Katy Perry - Dark Horse (2014) Full HD 1080p | 60 fps DJ Khaled feat. Rihanna & Bryson Tiller - Wild Thoughts (2017) Full HD 1080p | 60 fps Inna - Gimme Gimme (2017) Full HD 1080p | 60 fps Rihanna - Needed Me (2016) Full HD 1080p | 60 fps Loboda - Твои Глаза (2016) WEBRip 1080p | 60 fps Taylor Swift - Look What You Made Me Do (2017) WEBRip 1080p | 60 fps Taylor Swift - …Ready For It? (2017) WEBRip 1080p | 60 fps Selena Gomez - Bad Liar (2017) WEBRip 1080p | 60 fps Iggy Azalea - Mo Bounce (2017) Full HD 1080p | 60 fps Snoop Dogg - Wet (2011) Full HD 1080p | 60 fps
  1. Стаж:
    2 года 10 месяцев
    Сообщений:
    284
    Пол:
    Мужской
     
    Тимати и L'One - ГТО (2015) HDTVRip 1080p | 60 fps

    Информация о Клипе:
    Исполнители: Тимати и L'One
    Название: ГТО
    Год выпуска: 2015 г.
    Жанр: Rap,Pop,Hip-hop
    Продолжительность: 00:03:47

    Файл:
    Формат видео: MKV
    Качество видео: HDTVRip 1080p | 60 fps
    Видео кодек: H.264
    Аудио кодек: AC3
    Видео: 1920x1000 | 59.940 fps | 14,0 Мбит/сек
    Аудио: AC3 | 2 channels | 48 kHz | 384 Кбит/сек

    Автор Рипа:

    MediaInfo

    Видео
    Идентификатор : 1
    Формат : AVC
    Формат/Информация : Advanced Video Codec
    Профиль формата : High@L4.1
    Параметр CABAC формата : Да
    Параметр ReFrames формата : 4 кадра
    Идентификатор кодека : V_MPEG4/ISO/AVC
    Продолжительность : 3 м. 47 с.
    Битрейт : 14,0 Мбит/сек
    Ширина : 1920 пикселей
    Высота : 1000 пикселей
    Соотношение сторон : 1,920
    Режим частоты кадров : Постоянный
    Частота кадров : 59,880 кадров/сек
    Частота кадров в оригинале : 59,940 кадров/сек
    Цветовое пространство : YUV
    Субдискретизация насыщенности : 4:2:0
    Битовая глубина : 8 бит
    Тип развёртки : Прогрессивная
    Бит/(Пиксели*Кадры) : 0.122
    Размер потока : 368 Мбайт (95%)
    Заголовок : Тимати и L'One - ГТО « R.G 60-FPS Rip By Kamikkadze »
    Библиотека кодирования : x264 core 146 r2538 121396c
    Настройки программы : cabac=1 / ref=3 / deblock=1:0:0 / analyse=0x3:0x113 / me=umh / subme=7 / psy=1 / psy_rd=1.00:0.00 / mixed_ref=1 / me_range=16 / chroma_me=1 / trellis=2 / 8x8dct=1 / cqm=0 / deadzone=21,11 / fast_pskip=0 / chroma_qp_offset=-2 / threads=6 / lookahead_threads=1 / sliced_threads=0 / nr=0 / decimate=1 / interlaced=0 / bluray_compat=0 / constrained_intra=0 / bframes=3 / b_pyramid=2 / b_adapt=2 / b_bias=0 / direct=3 / weightb=1 / open_gop=0 / weightp=2 / keyint=250 / keyint_min=25 / scenecut=40 / intra_refresh=0 / rc_lookahead=40 / rc=2pass / mbtree=0 / bitrate=14000 / ratetol=1.0 / qcomp=0.60 / qpmin=0 / qpmax=69 / qpstep=4 / cplxblur=20.0 / qblur=0.5 / vbv_maxrate=14000 / vbv_bufsize=14000 / nal_hrd=none / filler=0 / ip_ratio=1.40 / pb_ratio=1.30 / aq=1:1.00
    Default : Да
    Forced : Нет
    Аудио
    Идентификатор : 2
    Формат : AC-3
    Формат/Информация : Audio Coding 3
    Расширение режима : CM (complete main)
    Параметр Endianness формата : Big
    Идентификатор кодека : A_AC3
    Продолжительность : 3 м. 47 с.
    Вид битрейта : Постоянный
    Битрейт : 384 Кбит/сек
    Каналы : 2 канала
    Расположение каналов : Front: L R
    Частота : 48,0 КГц
    Метод сжатия : С потерями
    Размер потока : 10,4 Мбайт (3%)
    Default : Да
    Forced : Нет
    Просьба к переливающим на другие сайты, в оформлении указывайте пожалуйста авторство рипа - Kamikkadze

    Релиз подготовлен 60 - fps



    Последний раз редактировалось: kamikkadze (2015-07-22 12:25), всего редактировалось 1 раз
  2. Стаж:
    3 года 1 месяц
    Сообщений:
    111
    Пол:
    Мужской
     
    Спасибо ща заценим качество!
    22-Июл-2015 12:13 (спустя 2 минуты)
  3. Стаж:
    3 года 1 месяц
    Сообщений:
    111
    Пол:
    Мужской
     
    Качество класс спасибо :ar:
    26-Июл-2015 00:36 (спустя 3 дня)


Вы не можете начинать темы
Вы не можете отвечать на сообщения
Вы не можете редактировать свои сообщения
Вы не можете удалять свои сообщения
Вы не можете голосовать в опросах
Вы не можете прикреплять файлы к сообщениям
Вы не можете скачивать файлы