Rammstein (БЕЗ ЦЕНЗУРЫ)| WEBRip 1080p | 60 fps Britney Spears - Oops! I Did It Again Uncut (2009) HD 1080p | 60 fps BLACKPINK | WEBRip 1080p | 60 fps Britney Spears - Toxic (2004) HDTVRip 1080p | 60 fps Evanescence - Synthesis Live (2018) BDRip 1080p | 60 fps ITZY | WEBRip 1080p | 60 fps Jennifer Lopez ft. Iggy Azalea - Booty (2014) Full HD 1080p | 60 fps Luis Fonsi - Despacito ft. Daddy Yankee (2017) WEBRip 1080p | 60 fps
  1. Longevity:
    5 years 8 months
    Posts:
    283
    Gender:
    Male
    Тимати feat. Рекорд Оркестр - Баклажан (2015) Full HD 1080p | 60 fps

    Информация о Клипе:
    Исполнители: Тимати feat. Рекорд Оркестр
    Название: Баклажан
    Год выпуска: 2015 г.
    Жанр: Pop
    Продолжительность: 00:03:34

    Файл:
    Формат видео: MKV
    Качество видео: Full HD 1080p | 60 fps
    Видео кодек: H.264
    Аудио кодек: AC3
    Видео: 1920x960 | 60,000 fps | 21,9 Мбит/сек
    Аудио:
    1)Censored ver. AC3 | 2 channels | 48 kHz | 448 Кбит/сек
    2)Uncensored ver. AC3 | 2 channels | 48 kHz | 448 Кбит/сек

    Автор Рипа:

    MediaInfo

    Видео
    Идентификатор : 1
    Формат : AVC
    Формат/Информация : Advanced Video Codec
    Профиль формата : High@L4.1
    Параметр CABAC формата : Да
    Параметр ReFrames формата : 4 кадра
    Идентификатор кодека : V_MPEG4/ISO/AVC
    Продолжительность : 3 м. 34 с.
    Битрейт : 21,9 Мбит/сек
    Ширина : 1920 пикселей
    Высота : 960 пикселей
    Соотношение сторон : 2,000
    Режим частоты кадров : Постоянный
    Частота кадров : 60,000 кадров/сек
    Цветовое пространство : YUV
    Субдискретизация насыщенности : 4:2:0
    Битовая глубина : 8 бит
    Тип развёртки : Прогрессивная
    Бит/(Пиксели*Кадры) : 0.198
    Размер потока : 546 Мбайт (94%)
    Заголовок : Тимати feat. Рекорд Оркестр - Баклажан « R.G 60-FPS Rip By Kamikkadze »
    Библиотека кодирования : x264 core 146 r2538 121396c
    Настройки программы : cabac=1 / ref=4 / deblock=1:-1:1 / analyse=0x3:0x133 / me=umh / subme=7 / psy=1 / psy_rd=1.00:0.15 / mixed_ref=1 / me_range=16 / chroma_me=1 / trellis=2 / 8x8dct=1 / cqm=0 / deadzone=21,11 / fast_pskip=1 / chroma_qp_offset=-3 / threads=6 / lookahead_threads=1 / sliced_threads=0 / nr=0 / decimate=1 / interlaced=0 / bluray_compat=0 / constrained_intra=0 / bframes=4 / b_pyramid=2 / b_adapt=2 / b_bias=0 / direct=1 / weightb=0 / open_gop=0 / weightp=2 / keyint=250 / keyint_min=25 / scenecut=40 / intra_refresh=0 / rc=abr / mbtree=0 / bitrate=21940 / ratetol=1.0 / qcomp=0.60 / qpmin=0 / qpmax=69 / qpstep=4 / ip_ratio=1.40 / pb_ratio=1.30 / aq=1:1.00
    Default : Да
    Forced : Нет
    Аудио #1
    Идентификатор : 2
    Формат : AC-3
    Формат/Информация : Audio Coding 3
    Расширение режима : CM (complete main)
    Параметр Endianness формата : Big
    Идентификатор кодека : A_AC3
    Продолжительность : 3 м. 34 с.
    Вид битрейта : Постоянный
    Битрейт : 448 Кбит/сек
    Каналы : 2 канала
    Расположение каналов : Front: L R
    Частота : 48,0 КГц
    Метод сжатия : С потерями
    Задержка видео : 491 мс.
    Размер потока : 11,5 Мбайт (2%)
    Заголовок : Censored ver.
    Язык : Russian
    Default : Да
    Forced : Нет
    Аудио #2
    Идентификатор : 3
    Формат : AC-3
    Формат/Информация : Audio Coding 3
    Расширение режима : CM (complete main)
    Параметр Endianness формата : Big
    Идентификатор кодека : A_AC3
    Продолжительность : 3 м. 34 с.
    Вид битрейта : Постоянный
    Битрейт : 448 Кбит/сек
    Каналы : 2 канала
    Расположение каналов : Front: L R
    Частота : 48,0 КГц
    Метод сжатия : С потерями
    Размер потока : 11,5 Мбайт (2%)
    Заголовок : Uncensored ver.
    Язык : Russian
    Default : Нет
    Forced : Нет
    Просьба к переливающим на другие сайты, в оформлении указывайте пожалуйста авторство рипа - Kamikkadze

    Release was prepared by 60 - fps

  2. Longevity:
    5 years 5 months
    Posts:
    1
    Gender:
    Unknown
    Звуковая дорожка опережает видео... (((
    28-Sep-2015 18:29 (after 8 days)
  3. Longevity:
    5 years 8 months
    Posts:
    283
    Gender:
    Male
    3786Звуковая дорожка опережает видео... (((
    Попробуйте 2дорожку,возможно железо ваше не тянет, у меня все нормально проигрывает.
    28-Sep-2015 19:58 (after 1 hour 29 minutes)


You cannot post new topics in this forum
You cannot reply to topics in this forum
You cannot edit your posts in this forum
You cannot delete your posts in this forum
You cannot vote in polls in this forum
You cannot attach files in this forum
You cannot download files in this forum