Philizz - Video Yearmix (2019) Full HD 1080p | 60 fps Madonna - Rebel Heart Tour (2016) Blu-Ray Rip 1080p | 72 fps NK - ELEFANTE (2019) Full HD 1080p | 60 fps Britney Spears - Oops! I Did It Again Uncut (2009) HD 1080p | 60 fps Snoop Dogg - Wet (2011) Full HD 1080p | 60 fps Nicki Minaj - Anaconda (2014) BDRip 1080p | 60 fps IOWA - Бьёт Бит (2015) Full HD 1080p | 60 fps Katy Perry - E.T. ft. Kanye West (2011) WEBRip 1080p | 60 fps
  1. Longevity:
    6 years 3 months
    Posts:
    283
    Gender:
    Male
    Тимати feat. Павел Мурашов - Олимп (2016) Full HD 1080p | 60 fps
    Информация о Клипе:
    Исполнители: Тимати feat. Павел Мурашов
    Название: Олимп
    Год выпуска: 2016 г.
    Жанр: Rap, Pop, Hip-Hop
    Продолжительность: 00:03:47
    Файл:
    Формат видео: MKV
    Качество видео: Full HD 1080p | 60 fps
    Видео кодек: H.264
    Аудио кодек: AC3
    Видео: 1888x728 | 59,940 fps | 19.2 Мбит/сек
    Аудио: AC3 | 2 channels | 48 kHz | 384 Кбит/сек

    Автор Рипа:

    MediaInfo

    Video
    ID : 1
    Format : AVC
    Format/Info : Advanced Video Codec
    Format profile : [email protected]
    Format settings, CABAC : Yes
    Format settings, ReFrames : 4 frames
    Muxing mode : Header stripping
    Codec ID : V_MPEG4/ISO/AVC
    Duration : 3 min 47 s
    Bit rate : 19.2 Mb/s
    Width : 1 888 pixels
    Height : 728 pixels
    Display aspect ratio : 2.593
    Frame rate mode : Constant
    Frame rate : 59.940 (59940/1000) FPS
    Color space : YUV
    Chroma subsampling : 4:2:0
    Bit depth : 8 bits
    Scan type : Progressive
    Bits/(Pixel*Frame) : 0.233
    Stream size : 518 MiB (96%)
    Title : Тимати feat. Павел Мурашов - Олимп « R.G 60-FPS Rip By Kamikkadze »
    Writing library : x264 core 146 r2538 121396c
    Encoding settings : cabac=1 / ref=3 / deblock=1:-1:-1 / analyse=0x3:0x133 / me=umh / subme=10 / psy=1 / psy_rd=1.00:0.15 / mixed_ref=1 / me_range=24 / chroma_me=1 / trellis=2 / 8x8dct=1 / cqm=0 / deadzone=21,11 / fast_pskip=1 / chroma_qp_offset=-3 / threads=6 / lookahead_threads=1 / sliced_threads=0 / nr=0 / decimate=1 / interlaced=0 / bluray_compat=0 / constrained_intra=0 / bframes=3 / b_pyramid=2 / b_adapt=2 / b_bias=0 / direct=1 / weightb=1 / open_gop=0 / weightp=2 / keyint=250 / keyint_min=25 / scenecut=40 / intra_refresh=0 / rc_lookahead=60 / rc=abr / mbtree=1 / bitrate=19184 / ratetol=1.0 / qcomp=0.60 / qpmin=0 / qpmax=69 / qpstep=4 / ip_ratio=1.40 / aq=1:1.00
    Default : Yes
    Forced : No
    Audio
    ID : 2
    Format : AC-3
    Format/Info : Audio Coding 3
    Mode extension : CM (complete main)
    Format settings, Endianness : Big
    Muxing mode : Header stripping
    Codec ID : A_AC3
    Duration : 3 min 47 s
    Bit rate mode : Constant
    Bit rate : 384 kb/s
    Channel(s) : 2 channels
    Channel positions : Front: L R
    Sampling rate : 48.0 kHz
    Frame rate : 31.250 FPS (1536 spf)
    Bit depth : 16 bits
    Compression mode : Lossy
    Stream size : 10.4 MiB (2%)
    Default : Yes
    Forced : No
    Просьба к переливающим на другие сайты, в оформлении указывайте пожалуйста авторство рипа - Kamikkadze

    Release was prepared by 60-fps.org



You cannot post new topics in this forum
You cannot reply to topics in this forum
You cannot edit your posts in this forum
You cannot delete your posts in this forum
You cannot vote in polls in this forum
You cannot attach files in this forum
You cannot download files in this forum