[Цитировать]
Kryl

-- Музыка Тимати - Ключи от рая (2016) WEBRip 1080p | 60 fps Музыка --Информация о Клипе
Исполнитель: Тимати
Название: Ключи от рая
Год выхода: 2016
Продолжительность: 00:03:47
О клипе:
Видео на песню «Ключи от рая» Тимати называет «историей из жизни». За первые сутки клип собрал почти полтора миллиона просмотров в Сети. Это не удивительно, ведь фанаты певца пытались выяснить, кому же артист посвятил строчки: «Как изменить все это, я уже не знаю, закрыв глаза, тебя я крепко обнимаю, тебя мне не заменит ни одна другая».
Поклонники предполагают, что таинственной девушкой может быть новая пассия рэпера — 20-летняя Анастасия Решетова, которая исполнила одну из главных ролей в видео. Романтически настроенная половина фанатов считает, что песня посвящена бывшей возлюбленной Тимати и матери его дочери — модели Алене Шишковой.
-Файл
Кодек: MPEG4/ISO/AVC/ H.264
Формат: MKV
Качество: WEBRip 1080p | 60 fps
Видео: 1920 x 740 (2.595) | 60.000 fps 5.0 Мбит/сек
Аудио: MP3 | 320 Кбит/сек | 44.1 KHz | 2 channels | 16 bits

MediaInfo

Видео
Идентификатор : 1
Формат : AVC
Формат/Информация : Advanced Video Codec
Профиль формата : High@L4.2
Параметр CABAC формата : Да
Параметр ReFrames формата : 3 кадра
Идентификатор кодека : V_MPEG4/ISO/AVC
Продолжительность : 3 м. 47 с.
Вид битрейта : Переменный
Битрейт : 4892 Кбит/сек
Максимальный битрейт : 5000 Кбит/сек
Ширина : 1920 пикселей
Высота : 740 пикселей
Соотношение сторон : 2,595
Режим частоты кадров : Постоянный
Частота кадров : 60,000 кадров/сек
Стандарт вещания : PAL
Цветовое пространство : YUV
Субдискретизация насыщенности : 4:2:0
Битовая глубина : 8 бит
Тип развёртки : Прогрессивная
Бит/(Пиксели*Кадры) : 0.057
Размер потока : 133 Мбайт (92%)
Заголовок : www.60-fps.org
Язык : English
Default : Да
Forced : Нет
Основные цвета : BT.709
Характеристики трансфера : BT.709
Коэффициенты матрицы : BT.709
colour_range : Limited
Аудио
Идентификатор : 2
Формат : MPEG Audio
Версия формата : Version 1
Профиль формата : Layer 3
Режим : Joint stereo
Расширение режима : MS Stereo
Идентификатор кодека : A_MPEG/L3
Идентификатор кодека/Подсказка : MP3
Продолжительность : 3 м. 47 с.
Вид битрейта : Постоянный
Битрейт : 320 Кбит/сек
Каналы : 2 канала
Частота : 44,1 КГц
Метод сжатия : С потерями
Размер потока : 8,68 Мбайт (6%)
Заголовок : MP-3
Библиотека кодирования : LAME3.99.5
Default : Да
Forced : Нет

Релиз подготовлен 60 - fps

 
Показать сообщения:    

Текущее время: 08-Дек 19:10

Часовой пояс: UTC + 3


Вы не можете начинать темы
Вы не можете отвечать на сообщения
Вы не можете редактировать свои сообщения
Вы не можете удалять свои сообщения
Вы не можете голосовать в опросах
Вы не можете прикреплять файлы к сообщениям
Вы не можете скачивать файлы