[Цитировать]
Mr.West

-Тихоокеанский рубеж / Pacific Rim (2013) BDRip

«Чтобы сражаться с монстрами, мы создали монстров»
- Год выпуска: 2013
Производство: США / Warner Bros. Pictures, Legendary Pictures
Жанр: Фантастика, Боевик, Приключения
Режиссер: Гильермо дель Торо
Продюсер: Гильермо дель Торо, Джон Дж. Джашни, Мэри Пэрент
Автор сценария: Трэвис Бичем, Гильермо дель Торо
Актеры: Чарли Ханнэм, Идрис Эльба, Ринко Кикути, Роберт Казински, Макс Мартини, Чарли Дэй, Берн Горман, Клифтон Коллинз мл., Рон Перлман, Диего Клаттенхофф
Описание фильма:
Когда из морских глубин поднялись легионы чудовищ, известных как Кайдзу, началась война, которой суждено было забрать миллионы жизней и свести «человеческие ресурсы» почти к нулю всего за несколько лет. Чтобы сражаться с пришельцами, было создано специальное оружие: огромные роботы, названные Джегерами, они управлялись одновременно двумя пилотами, чьи сознания соединены с помощью нейронной связи. Но даже Джегеры оказываются почти бессильны перед лицом безжалостных Кайдзу. На грани поражения у защитников человечества нет выбора, кроме как обратиться к двум весьма сомнительным героям — никому не нужному бывшему пилоту и неопытному стажеру — которые объединились, чтобы повести в бой некогда легендарного, но сейчас устаревшего Джегера. Вместе они оказываются единственной надеждой человечества, последним препятствием перед надвигающимся апокалипсисом.
Дата мировой премьеры: 2 июля 2013
Дата российской премьеры: 11 июля 2013
Дата выхода DVD релиза: 14 ноября 2013
Дата выхода Blu-Ray: 21 ноября 2013

Продолжительность: 02:11:16
Качество видео: BDRip [720p]
Перевод: Профессиональный (полное дублирование)
Студия дубляжа: МОСФИЛЬМ-мастер (2013)
Субтитры: Русские (форсированные, полные) + Английские (полные)
Вид субтитров: Вшитые отключаемые
Автор рипа: EXCLUSIF
Возраст: 12+
Рейтинг MPAA: PG-13 (детям до 13 лет просмотр не желателен)
Видео: 1280x720; ~6904 Kbps (VBR); 59.940 fps
Аудио : AC-3; 640 Kbps; 48.0 KHz; 5.1 CH
Аудио : AC-3; 640 Kbps; 48.0 KHz; 5.1 CH-

Важно

Прежде чем скачивать фильм полностью, скачайте "сэмпл", и проверьте будет ли воспроизводится видео на вашем устройстве!
-У меня не запускается видео на компьютере.
-Обновите кодеки. (попробуйте другие видео проигрыватели)
Проигрыватели.
-Daum PotPlayer
-MPC-HC (Media Player Classic - Home Cinema)
-The KMPlayer (Korean Multimedia Player) (оптимальный вариант)
-Mirillis Splash PRO

MediaInfo

Общее
Формат : Matroska
Версия формата : Version 4 / Version 2
Размер файла : 7,66 Гбайт
Продолжительность : 2 ч. 11 м.
Общий поток : 8350 Кбит/сек
Название фильма : Pacific Rim [BDRip-720p 60 FPS] By EXCLUSIF
Дата кодирования : UTC 2014-02-24 17:02:23
Программа кодирования : mkvmerge v6.5.0 ('Isn't she lovely') built on Oct 20 2013 12:50:05
Библиотека кодирования : libebml v1.3.0 + libmatroska v1.4.1
Видео
Идентификатор : 1
Формат : AVC
Формат/Информация : Advanced Video Codec
Профиль формата : High@L4.0
Параметр CABAC формата : Да
Параметр ReFrames формата : 8 кадров
Идентификатор кодека : V_MPEG4/ISO/AVC
Продолжительность : 2 ч. 11 м.
Битрейт : 6904 Кбит/сек
Ширина : 1280 пикселей
Высота : 720 пикселей
Соотношение сторон : 16:9
Режим частоты кадров : Постоянный
Частота кадров : 59,880 кадров/сек
Частота кадров в оригинале : 59,940 кадров/сек
Цветовое пространство : YUV
Субдискретизация насыщенности : 4:2:0
Битовая глубина : 8 бит
Тип развёртки : Прогрессивная
Бит/(Пиксели*Кадры) : 0.125
Размер потока : 6,33 Гбайт (83%)
Заголовок : Release by EXCLUSIF
Библиотека кодирования : x264 core 138 r2358 9e941d1
Настройки программы : cabac=1 / ref=8 / deblock=1:-3:-2 / analyse=0x3:0x133 / me=umh / subme=9 / psy=1 / psy_rd=1.00:0.00 / mixed_ref=1 / me_range=24 / chroma_me=1 / trellis=2 / 8x8dct=1 / cqm=0 / deadzone=21,11 / fast_pskip=0 / chroma_qp_offset=-2 / threads=6 / lookahead_threads=1 / sliced_threads=0 / nr=0 / decimate=0 / interlaced=0 / bluray_compat=0 / constrained_intra=0 / bframes=5 / b_pyramid=2 / b_adapt=2 / b_bias=0 / direct=3 / weightb=1 / open_gop=0 / weightp=2 / keyint=599 / keyint_min=59 / scenecut=40 / intra_refresh=0 / rc_lookahead=60 / rc=crf / mbtree=1 / crf=18.0 / qcomp=0.60 / qpmin=0 / qpmax=69 / qpstep=4 / ip_ratio=1.40 / aq=1:1.00
Язык : English
Default : Да
Forced : Нет
Аудио #1
Идентификатор : 2
Формат : AC-3
Формат/Информация : Audio Coding 3
Расширение режима : CM (complete main)
Параметр Endianness формата : Big
Идентификатор кодека : A_AC3
Продолжительность : 2 ч. 11 м.
Вид битрейта : Постоянный
Битрейт : 640 Кбит/сек
Каналы : 6 каналов
Расположение каналов : Front: L C R, Side: L R, LFE
Частота : 48,0 КГц
Битовая глубина : 16 бит
Метод сжатия : С потерями
Размер потока : 601 Мбайт (8%)
Заголовок : Rus
Язык : Russian
Default : Да
Forced : Нет
Аудио #2
Идентификатор : 3
Формат : AC-3
Формат/Информация : Audio Coding 3
Расширение режима : CM (complete main)
Параметр Endianness формата : Big
Идентификатор кодека : A_AC3
Продолжительность : 2 ч. 11 м.
Вид битрейта : Постоянный
Битрейт : 640 Кбит/сек
Каналы : 6 каналов
Расположение каналов : Front: L C R, Side: L R, LFE
Частота : 48,0 КГц
Битовая глубина : 16 бит
Метод сжатия : С потерями
Размер потока : 601 Мбайт (8%)
Заголовок : Eng
Язык : English
Default : Нет
Forced : Нет
Текст #1
Идентификатор : 4
Формат : UTF-8
Идентификатор кодека : S_TEXT/UTF8
Идентификатор кодека/Информация : UTF-8 Plain Text
Заголовок : Rus Forced
Язык : Russian
Default : Да
Forced : Да
Текст #2
Идентификатор : 5
Формат : UTF-8
Идентификатор кодека : S_TEXT/UTF8
Идентификатор кодека/Информация : UTF-8 Plain Text
Заголовок : Rus
Язык : Russian
Default : Нет
Forced : Нет
Текст #3
Идентификатор : 6
Формат : UTF-8
Идентификатор кодека : S_TEXT/UTF8
Идентификатор кодека/Информация : UTF-8 Plain Text
Заголовок : Eng
Язык : English
Default : Нет
Forced : Нет
-
[60-fps.org].t219.torrent
Торрент: Зарегистрирован [ 2014-11-25 23:43 ] · 00544E90A74954E5A87C58F73F860748C1A16727

Скачать .torrent

Скачать

20 KB

Статус: проверено
Скачан: 142 раз
Поблагодарили:
Размер: 7,66 GB
Тихоокеанский рубеж / Pacific Rim (2013) BDRip [720p] [60 FPS]
 
 
Показать сообщения:    

Текущее время: 20-Фев 07:10

Часовой пояс: UTC + 3


Вы не можете начинать темы
Вы не можете отвечать на сообщения
Вы не можете редактировать свои сообщения
Вы не можете удалять свои сообщения
Вы не можете голосовать в опросах
Вы не можете прикреплять файлы к сообщениям
Вы можете скачивать файлы