VIP

Тор: Рагнарёк / Thor: Ragnarok (2017) BDRip 1080p | 60 fps Мстители: Эра Альтрона / Avengers: Age of Ultron (2015) BDRip 1080p | 60 fps Стражи Галактики. Часть 2 / Guardians of the Galaxy Vol. 2 (2017) BDRip 1080p | 60 fps Доктор Стрэндж / Doctor Strange (2016) BDRip 1080p | 60 fps Чёрная Пантера / Black Panther (2018) BDRip 1080p | 60 fps Первый мститель: Противостояние / Captain America: Civil War (2016) BDRip 1080p | 60 fps Мстители / The Avengers (2012) BDRip 720p | 60 fps Дэдпул / Deadpool (2016) BDRip 1080p | 60 fps
  1. Стаж:
    2 года 1 месяц
    Сообщений:
    630
    Пол:
    Мужской
    «Rise up»- Информация
    Название: Тихоокеанский рубеж 2
    Оригинальное название: Pacific Rim: Uprising
    Год выхода: 2018
    Жанр: фантастика, боевик, приключения
    Режиссер: Стивен С. ДеНайт
    Сценарий: Стивен С. ДеНайт, Эмили Кармайкл, Кира Снайдер
    Продюсер: Джей Эшенфелтер, Джон Бойега, Кейл Бойтер
    В ролях: Джон Бойега,Скотт Иствуд,Кэйли Спэни,Берн Горман,Чарли Дэй,Цзин Тянь,Макс Чжан,Адриа Архона,Ринко Кикути,Каран Брэр
    --Сюжет:
    Команда пилотируемых роботов-защитников остановила вторжение гигантских инопланетных монстров. Великая битва за Тихоокеанский рубеж ознаменовала новую главу в истории человечества. Однако война только начинается…
    Пришло время нового поколения отстаивать своё право на Землю.
    - Страна: США, Китай, Великобритания
    Продолжительность: 01:50:42

    Файл
    Кодек: MPEG4/ISO/AVC/H.264
    Формат: MKV
    Качество: BDRip 1080p | 60 fps
    Видео: 1920 x 800 (2.400) | 59.940 fps | 32.0 Мбит/сек
    Аудио 1: AC-3| 5.1 | 48 kHz | 384 Кбит/сек | 16 bit | Дубляж (iTunes) |
    Аудио 2: Atmos / TrueHD| 7.1 | 48 kHz | 4001 Кбит/сек / 7437 Кбит/сек | Оригинал
    Субтитры:

    MedifInfo

    Видео
    Идентификатор : 1
    Формат : AVC
    Формат/Информация : Advanced Video Codec
    Профиль формата : High@L4.1
    Параметр CABAC формата : Да
    Параметр ReFrames формата : 4 кадра
    Идентификатор кодека : V_MPEG4/ISO/AVC
    Продолжительность : 1 ч. 50 м.
    Битрейт : 32,0 Мбит/сек
    Ширина : 1920 пикселей
    Высота : 800 пикселей
    Соотношение сторон : 2,40:1
    Режим частоты кадров : Постоянный
    Частота кадров : 59,940 (60000/1001) кадров/сек
    Цветовое пространство : YUV
    Субдискретизация насыщенности : 4:2:0
    Битовая глубина : 8 бит
    Тип развёртки : Прогрессивная
    Бит/(Пиксели*Кадры) : 0.348
    Размер потока : 24,7 Гбайт (88%)
    Заголовок : Талямба: 60-fps.org
    Библиотека кодирования : x264 core 146 r2538 121396c
    Настройки программы : cabac=1 / ref=3 / deblock=1:-3:-3 / analyse=0x3:0x113 / me=hex / subme=7 / psy=1 / psy_rd=1.00:0.25 / mixed_ref=1 / me_range=16 / chroma_me=1 / trellis=1 / 8x8dct=1 / cqm=0 / deadzone=6,6 / fast_pskip=1 / chroma_qp_offset=-4 / threads=12 / lookahead_threads=2 / sliced_threads=0 / nr=0 / decimate=0 / interlaced=0 / bluray_compat=0 / constrained_intra=0 / bframes=3 / b_pyramid=2 / b_adapt=1 / b_bias=0 / direct=1 / weightb=1 / open_gop=0 / weightp=2 / keyint=599 / keyint_min=59 / scenecut=40 / intra_refresh=0 / rc_lookahead=40 / rc=2pass / mbtree=1 / bitrate=32000 / ratetol=1.0 / qcomp=0.80 / qpmin=0 / qpmax=69 / qpstep=4 / cplxblur=20.0 / qblur=0.5 / vbv_maxrate=50000 / vbv_bufsize=50000 / nal_hrd=none / filler=0 / ip_ratio=1.10 / aq=1:0.50
    Язык : English
    Default : Да
    Forced : Нет
    Аудио #1
    Идентификатор : 2
    Формат : AC-3
    Формат/Информация : Audio Coding 3
    Расширение режима : CM (complete main)
    Параметр Endianness формата : Big
    Идентификатор кодека : A_AC3
    Продолжительность : 1 ч. 50 м.
    Вид битрейта : Постоянный
    Битрейт : 384 Кбит/сек
    Каналы : 6 каналов
    Расположение каналов : Front: L C R, Side: L R, LFE
    Частота : 48,0 КГц
    Частота кадров : 31,250 кадров/сек (1536 spf)
    Битовая глубина : 16 бит
    Метод сжатия : С потерями
    Размер потока : 304 Мбайт (1%)
    Заголовок : Дубляж (iTunes)
    Язык : Russian
    Default : Да
    Forced : Да
    Аудио #2
    Идентификатор : 3
    Формат : Atmos / TrueHD
    Идентификатор кодека : A_TRUEHD
    Продолжительность : 1 ч. 50 м.
    Вид битрейта : Переменный
    Битрейт : 4001 Кбит/сек
    Максимальный битрейт : 7437 Кбит/сек
    Каналы : Object Based / 8 каналов
    Расположение каналов : Object Based / Front: L C R, Side: L R, Back: L R, LFE
    Частота : / 48,0 КГц
    Частота кадров : 1200,000 кадров/сек (40 spf)
    Метод сжатия : Без потерь
    Размер потока : 3,09 Гбайт (11%)
    Заголовок : Оригинал
    Язык : English
    Default : Нет
    Forced : Нет
    Текст #1
    Идентификатор : 4
    Формат : UTF-8
    Идентификатор кодека : S_TEXT/UTF8
    Идентификатор кодека/Информация : UTF-8 Plain Text
    Продолжительность : 1 ч. 38 м.
    Битрейт : 1 бит/сек
    Count of elements : 25
    Размер потока : 1,15 Кбайт (0%)
    Заголовок : Forced
    Язык : Russian
    Default : Да
    Forced : Да
    Текст #2
    Идентификатор : 5
    Формат : UTF-8
    Идентификатор кодека : S_TEXT/UTF8
    Идентификатор кодека/Информация : UTF-8 Plain Text
    Продолжительность : 1 ч. 40 м.
    Битрейт : 104 бит/сек
    Count of elements : 1191
    Размер потока : 76,6 Кбайт (0%)
    Заголовок : full
    Язык : Russian
    Default : Нет
    Forced : Нет
    Текст #3
    Идентификатор : 6
    Формат : UTF-8
    Идентификатор кодека : S_TEXT/UTF8
    Идентификатор кодека/Информация : UTF-8 Plain Text
    Продолжительность : 1 ч. 40 м.
    Битрейт : 59 бит/сек
    Count of elements : 1161
    Размер потока : 43,4 Кбайт (0%)
    Заголовок : full
    Язык : English
    Default : Нет
    Forced : Нет
    Меню
    00:00:00.000 : en:00:00:00.000
    00:06:54.873 : en:00:06:54.873
    00:13:05.368 : en:00:13:05.368
    00:15:51.075 : en:00:15:51.075
    00:20:36.360 : en:00:20:36.360
    00:24:49.697 : en:00:24:49.697
    00:31:08.241 : en:00:31:08.241
    00:37:56.065 : en:00:37:56.065
    00:43:37.949 : en:00:43:37.949
    00:49:01.939 : en:00:49:01.939
    00:53:40.926 : en:00:53:40.926
    00:58:12.030 : en:00:58:12.030
    01:04:45.006 : en:01:04:45.006
    01:09:25.536 : en:01:09:25.536
    01:14:36.722 : en:01:14:36.722
    01:22:53.427 : en:01:22:53.427
    01:29:02.546 : en:01:29:02.546
    01:33:10.585 : en:01:33:10.585
    01:38:07.381 : en:01:38:07.381
    01:40:55.049 : en:01:40:55.049
  2. Стаж:
    2 года 1 месяц
    Сообщений:
    630
    Пол:
    Мужской
    720р Лично я делать не буду,можете и не просить !
    14-Июн-2018 13:13 (спустя 23 минуты)
  3. Стаж:
    1 год 11 месяцев
    Сообщений:
    3
    Пол:
    Не указан
    720р Лично я делать не буду,можете и не просить !
    жаль...
    15-Июн-2018 19:27 (спустя 1 день 6 часов)
  4. Стаж:
    4 года
    Сообщений:
    2415
    Пол:
    Мужской
    9893
    720р Лично я делать не буду,можете и не просить !
    жаль...
    Приеду сделаю...
    15-Июн-2018 22:22 (спустя 2 часа 54 минуты)
  5. Стаж:
    5 месяцев 16 дней
    Сообщений:
    19
    Пол:
    Мужской
    Неплохое продолжение, но первая часть лучше, интересно, что высосут из пальца в следующий раз. На мой взгляд это предел. Отличное качество, релизёр молодец, всегда отличные рипы, как и у "Kryl", что бы мы без вас делали! Держите планку и дальше!
    29-Июл-2018 19:11 (спустя 1 месяц 13 дней)
  6. Стаж:
    1 год 8 месяцев
    Сообщений:
    1
    Пол:
    Не указан
    Спасибо за фулл ХД.
    14-Авг-2018 01:10 (спустя 15 дней)


Вы не можете начинать темы
Вы не можете отвечать на сообщения
Вы не можете редактировать свои сообщения
Вы не можете удалять свои сообщения
Вы не можете голосовать в опросах
Вы не можете прикреплять файлы к сообщениям
Вы не можете скачивать файлы