1. Longevity:
    7 years
    Posts:
    2413
    Gender:
    Male
    -The Weeknd - Starboy ft. Daft Punk (2016) Full HD 1080p | 60 fps --Информация о Клипе
    Исполнитель: The Weeknd
    Название: Starboy ft. Daft Punk
    Год выхода: 2016
    Продолжительность: 00:04:38-Описание:
    Музыкальное видео на песню был снят постоянным коллаборатором Грантом Сингером, который снял предыдущие музыкальные видео Уикнда на «Can't Feel My Face» и «The Hills». Он был выпущен на официальном Vevo-аккаунте артиста на YouTube 28 сентября 2016 года вместе с сопровождающим постером, который Rolling Stone охарактеризовал «вдохновлённым бульварными хоррорами» (англ. pulp-horror-inspired).[5] Видео было описано как попытка певца убить своего прежнего / старого персонажа — вероятно, оповещая, что он изобретает себя заново со своим новым альбомом, удушая себя, обрезая свою старую причёску и разрушая свои помещённые за стекло в раме платиновые записи.
    Несколько автомобилей, которые были упомянуты в тексте песни, появляются в видеоклипе, включая Lamborghini Aventador SV Roadster, о котором Уикнд поёт во втором куплете: «Pull off in that Roadster SV/ Pockets overweight, getting hefty» (в переводе с англ.«Отъезжаю в Roadster SV/ Перевес в карманах становится всё больше»), Bentley Mulsanne: «No competition, I don’t really listen/ I’m in the blue Mulsanne bumping New Edition» (в переводе с англ.«Никакой конкуренции, я даже не слышал/ В синем Mulsanne качаюсь под New Edition»), а также McLaren P1: «I’m trying to put you in the worst mood/ P1 cleaner than your church shoes» (в переводе с англ.«Я пытаюсь заставить тебя рыдать/ чище, чем твоя обувь на выход»). В видео певец задействовал McLaren P1. Billboard обратился к Джону Паоло Кэнтону, директору по вопросам связи с общественностью McLaren Automotive, с целью прояснить, кому принадлежит автомобиль, ведь, как заявил веб-сайт, «даже самый крупный производитель автомобилей не смог бы позволить себе такого продакт-плейсмента, как этот, не говоря уже о бутиковом британском бренде». Кэнтон подтвердил, что гиперкар принадлежит Уикнду.
    -Файл
    Кодек: MPEG4/ISO/AVC
    Контейнер: MKV
    Формат: AVC
    Качество: Full HD 1080p | 60 fps
    Видео: 1920 x 1080 (1.778) | 59.940 fps | 30 Мбит/сек
    Аудио: DTS | 1413 Кбит/сек | 2.0 канала | 48.0 КГц | 16 бит

    MediaInfo

    Видео
    Идентификатор : 1
    Формат : AVC
    Формат/Информация : Advanced Video Codec
    Профиль формата : [email protected]
    Параметр CABAC формата : Да
    Параметр ReFrames формата : 4 кадра
    Идентификатор кодека : V_MPEG4/ISO/AVC
    Продолжительность : 4 м. 38 с.
    Битрейт : 30,0 Мбит/сек
    Ширина : 1920 пикселей
    Высота : 1080 пикселей
    Соотношение сторон : 16:9
    Режим частоты кадров : Постоянный
    Частота кадров : 59,880 кадров/сек
    Частота кадров в оригинале : 59,940 кадров/сек
    Цветовое пространство : YUV
    Субдискретизация насыщенности : 4:2:0
    Битовая глубина : 8 бит
    Тип развёртки : Прогрессивная
    Бит/(Пиксели*Кадры) : 0.242
    Размер потока : 969 Мбайт (93%)
    Заголовок : www.60-fps.org
    Библиотека кодирования : x264 core 148 r2744 b97ae06
    Настройки программы : cabac=1 / ref=4 / deblock=1:-3:-3 / analyse=0x3:0x113 / me=umh / subme=8 / psy=1 / psy_rd=1.00:0.25 / mixed_ref=1 / me_range=32 / chroma_me=1 / trellis=1 / 8x8dct=1 / cqm=0 / deadzone=6,6 / fast_pskip=1 / chroma_qp_offset=-4 / threads=12 / lookahead_threads=2 / sliced_threads=0 / nr=0 / decimate=0 / interlaced=0 / bluray_compat=0 / constrained_intra=0 / bframes=3 / b_pyramid=2 / b_adapt=1 / b_bias=0 / direct=3 / weightb=1 / open_gop=0 / weightp=2 / keyint=599 / keyint_min=59 / scenecut=40 / intra_refresh=0 / rc_lookahead=50 / rc=2pass / mbtree=1 / bitrate=29999 / ratetol=1.0 / qcomp=0.80 / qpmin=0 / qpmax=69 / qpstep=4 / cplxblur=20.0 / qblur=0.5 / vbv_maxrate=62500 / vbv_bufsize=78125 / nal_hrd=none / filler=0 / ip_ratio=1.10 / aq=1:0.50
    Default : Да
    Forced : Нет
    Аудио
    Идентификатор : 2
    Формат : DTS
    Формат/Информация : Digital Theater Systems
    Режим : 16
    Параметр Endianness формата : Big
    Идентификатор кодека : A_DTS
    Продолжительность : 4 м. 38 с.
    Вид битрейта : Постоянный
    Битрейт : 1413 Кбит/сек
    Каналы : 2 канала
    Расположение каналов : Front: L R
    Частота : 48,0 КГц
    Битовая глубина : 16 бит
    Метод сжатия : С потерями
    Задержка видео : 83 мс.
    Размер потока : 47,0 Мбайт (5%)
    Язык : English
    Default : Да
    Forced : Нет
    DURATION : 00:04:38.784000000
    NUMBER_OF_FRAMES : 26136
    NUMBER_OF_BYTES : 49240224
    _STATISTICS_WRITING_APP : mkvmerge v7.6.0 ('Garden of Dreams') 32bit built on Feb 8 2015 12:51:39
    _STATISTICS_WRITING_DATE_UTC : 2017-08-04 10:09:20
    _STATISTICS_TAGS : BPS DURATION NUMBER_OF_FRAMES NUMBER_OF_BYTES

    Release was prepared by 60-fps.org



You cannot post new topics in this forum
You cannot reply to topics in this forum
You cannot edit your posts in this forum
You cannot delete your posts in this forum
You cannot vote in polls in this forum
You cannot attach files in this forum
You cannot download files in this forum