[Цитировать]
ZHz

Исполнитель: The Script ft. will.i.am
Название: Hall of Fame
Год выхода: 2012
Продолжительность: 00:03:53--Кодек: AVC
Формат: MKV
Качество: WEBRip 1080p
Видео: 1920x1080, 59.940 fps, 7453 kb/s
Аудио: AC3 256 Kbps, 2 channels, 44.1 KHz

MediaInfo

General
Unique ID : 218210433657129718242488435759468326284 (0xA429CD03932E5E0492F0479EACFD2D8C)
Complete name : J:\60FPS\The Script - Hall of Fame ft. will.i.am\The Script - Hall of Fame ft. will.i.am.mkv
Format : Matroska
Format version : Version 2
File size : 219 MiB
Duration : 3mn 53s
Overall bit rate : 7 865 Kbps
Encoded date : UTC 2014-12-02 12:25:22
Writing application : mkvmerge v6.1.0 ('Old Devil') built on Mar 4 2013 09:10:42
Writing library : libebml v1.3.0 + libmatroska v1.4.0
Video
ID : 1
Format : AVC
Format/Info : Advanced Video Codec
Format profile : High@L4.2
Format settings, CABAC : Yes
Format settings, ReFrames : 4 frames
Codec ID : V_MPEG4/ISO/AVC
Duration : 3mn 53s
Bit rate : 7 453 Kbps
Width : 1 920 pixels
Height : 1 080 pixels
Display aspect ratio : 16:9
Frame rate mode : Constant
Frame rate : 59.880 fps
Original frame rate : 59.940 fps
Color space : YUV
Chroma subsampling : 4:2:0
Bit depth : 8 bits
Scan type : Progressive
Bits/(Pixel*Frame) : 0.060
Stream size : 207 MiB (95%)
Writing library : x264 core 130 r2273 b3065e6
Encoding settings : cabac=1 / ref=4 / deblock=1:-2:-2 / analyse=0x3:0x112 / me=esa / subme=7 / psy=1 / psy_rd=1.00:0.10 / mixed_ref=1 / me_range=4 / chroma_me=1 / trellis=2 / 8x8dct=1 / cqm=0 / deadzone=21,11 / fast_pskip=1 / chroma_qp_offset=-3 / threads=12 / lookahead_threads=2 / sliced_threads=0 / nr=0 / decimate=1 / interlaced=0 / bluray_compat=0 / constrained_intra=0 / bframes=3 / b_pyramid=2 / b_adapt=1 / b_bias=0 / direct=1 / weightb=1 / open_gop=0 / weightp=2 / keyint=250 / keyint_min=25 / scenecut=40 / intra_refresh=0 / rc_lookahead=40 / rc=crf / mbtree=1 / crf=18.5 / qcomp=0.60 / qpmin=0 / qpmax=69 / qpstep=4 / ip_ratio=1.40 / aq=1:1.00
Default : Yes
Forced : No
Audio
ID : 2
Format : AC-3
Format/Info : Audio Coding 3
Mode extension : CM (complete main)
Format settings, Endianness : Big
Codec ID : A_AC3
Duration : 3mn 53s
Bit rate mode : Constant
Bit rate : 256 Kbps
Channel(s) : 2 channels
Channel positions : Front: L R
Sampling rate : 44.1 KHz
Bit depth : 16 bits
Compression mode : Lossy
Stream size : 7.11 MiB (3%)
Default : Yes
Forced : No

Скриншоты

[Цитировать]
ZHz

Более-менее смотрибельно выглядит

[Цитировать]
Тимур Артыков

ZHz, спасибо
 
Показать сообщения:    

Текущее время: 03-Дек 16:39

Часовой пояс: UTC + 3


Вы не можете начинать темы
Вы не можете отвечать на сообщения
Вы не можете редактировать свои сообщения
Вы не можете удалять свои сообщения
Вы не можете голосовать в опросах
Вы не можете прикреплять файлы к сообщениям
Вы не можете скачивать файлы