[Цитировать]
Kryl

Территория (2014) WEBRip 720p | 60 fps- Информация о фильме
Название: Территория
Год выхода: 2014
Жанр: Драма, приключения
Режиссер: Александр Мельник
Сценарий: Александр Мельник, Михаил Александров, Олег Куваев
Директор фильма: Антон Мельник, Ирина Борисова, Татьяна Емченко
В ролях: Константин Лавроненко, Григорий Добрыгин, Егор Бероев, Ксения Кутепова, Евгений Цыганов, Владислав Абашин, Герасим Васильев, Константин Шелестун, Константин Балакирев, Олег Шапков
--О фильме:
Территория — это место, где люди проверяются на прочность. Необозримые пространства, где тундра встречается с ледяными торосами Ледовитого океана. Суровый русский север, которому способны бросить вызов немногие. Геолог Илья Чинков, одержимый идеей найти легендарное золото Территории, собирает команду смельчаков, готовых поставить на карту все, включая собственные жизни.- Страна: Россия
Продолжительность: 02:32:13
-- Файл
Кодек: MPEG4/ISO/AVC H.264
Формат: MKV
Качество: WEBRip 720p | 60 fps
Видео: 1280 x 534 (2.397) | 60.000 fps | 6.0 Мбит/сек
Аудио: AC-3 | 5.1 | 48 kHz | 384 Кбит/сек | 16 bit |

MedifInfo

Видео
Идентификатор : 1
Формат : AVC
Формат/Информация : Advanced Video Codec
Профиль формата : High@L4.1
Параметр CABAC формата : Да
Параметр ReFrames формата : 3 кадра
Идентификатор кодека : V_MPEG4/ISO/AVC
Продолжительность : 2 ч. 31 м.
Вид битрейта : Переменный
Битрейт : 5857 Кбит/сек
Максимальный битрейт : 6000 Кбит/сек
Ширина : 1280 пикселей
Высота : 534 пикселя
Соотношение сторон : 2,40:1
Режим частоты кадров : Постоянный
Частота кадров : 60,000 кадров/сек
Стандарт вещания : PAL
Цветовое пространство : YUV
Субдискретизация насыщенности : 4:2:0
Битовая глубина : 8 бит
Тип развёртки : Прогрессивная
Бит/(Пиксели*Кадры) : 0.143
Размер потока : 6,21 Гбайт (92%)
Заголовок : www.60-fps.org
Язык : English
Default : Да
Forced : Нет
Основные цвета : BT.601 NTSC
Характеристики трансфера : BT.601
Коэффициенты матрицы : BT.601
colour_range : Limited
Аудио
Идентификатор : 2
Формат : AC-3
Формат/Информация : Audio Coding 3
Расширение режима : CM (complete main)
Параметр Endianness формата : Big
Идентификатор кодека : A_AC3
Продолжительность : 2 ч. 31 м.
Вид битрейта : Постоянный
Битрейт : 384 Кбит/сек
Каналы : 6 каналов
Расположение каналов : Front: L C R, Side: L R, LFE
Частота : 48,0 КГц
Битовая глубина : 16 бит
Метод сжатия : С потерями
Размер потока : 417 Мбайт (6%)
Заголовок : AC3
Язык : Russian
Default : Да
Forced : Нет
Меню
00:00:00.000 : en:Глава 1
00:04:33.000 : en:Глава 2
00:10:45.000 : en:Глава 3
00:18:03.000 : en:Глава 4
00:22:27.000 : en:Глава 5
00:27:01.000 : en:Глава 6
00:32:39.000 : en:Глава 7
00:39:20.000 : en:Глава 8
00:45:28.000 : en:Глава 9
00:51:28.000 : en:Глава 10
00:55:35.000 : en:Глава 11
01:01:19.000 : en:Глава 12
01:06:59.000 : en:Глава 13
01:15:13.000 : en:Глава 14
01:20:38.000 : en:Глава 15
01:25:15.000 : en:Глава 16
01:33:46.000 : en:Глава 17
01:37:34.000 : en:Глава 18
01:42:21.000 : en:Глава 19
01:47:36.000 : en:Глава 20
01:50:58.000 : en:Глава 21
01:55:29.000 : en:Глава 22
02:01:33.000 : en:Глава 23
02:09:22.000 : en:Глава 24
02:14:02.000 : en:Глава 25
02:19:15.000 : en:Глава 26
02:23:30.000 : en:Глава 27

Релиз подготовлен 60 - fps

 
Показать сообщения:    

Текущее время: 29-Май 01:20

Часовой пояс: UTC + 3


Вы не можете начинать темы
Вы не можете отвечать на сообщения
Вы не можете редактировать свои сообщения
Вы не можете удалять свои сообщения
Вы не можете голосовать в опросах
Вы не можете прикреплять файлы к сообщениям
Вы не можете скачивать файлы