[Цитировать]
Kryl

«Судьба переписана»- Информация
Название: Терминатор: Генезис
Оригинальное название: Terminator: Genisys
Год выхода: 2015
Жанр: Фантастика, боевик, триллер, приключения
Режиссер: Алан Тейлор
Сценарий: Лаэта Калогридис, Патрик Люссье, Джеймс Кэмерон
Продюсер: Дэвид Эллисон, Дэна Голдберг, Билл Карраро
В ролях:
Арнольд Шварценеггер Джейсон Кларк Эмилия Кларк Джай Кортни Дж.К. Симмонс Дайо Окенийи Мэтт Смит, Кортни Б. Вэнс, Бён Хон Ли, Майкл Глэдис, Сандрин Холт, Уэйн Баструп, Грегори Алан Уильямс, Отто Санчес, Мэтти Ферраро, Грифф Ферст, Йен Этеридж, Нолан Гросс, Сет Меривезер, Афемо Омилами
--Сюжет:
Когда Джон Коннор, лидер сопротивления, посылает сержанта Кайла Риза назад в 1984 год, чтобы защитить Сару Коннор и спасти будущее, неожиданный поворот событий создает разлом во времени. Сержант Риз оказывается в новой, незнакомой версии прошлого, где он встречает неожиданных союзников, в том числе Терминатора, новых опасных врагов, и новую миссию: изменить будущее…- - Страна: США
Продолжительность: 02:05:43
-- Файл
Кодек: MPEG4/ISO/AVC H.264
Формат: MKV
Качество: BDRip 720p
Видео: 1280 x 534 (2.397) | 59.940 fps | 9.6 Мбит/сек
Аудио 1: AC3 | 5.1 | 48 kHz | 448 kbps | 16 bit | Дублированный [Чистый звук] |
Аудио 2: AC3 | 5.1 | 48 kHz | 448 kbps | 16 bit | ENG |
Субтитры: Русские, английские

MedifInfo

Видео
Идентификатор : 1
Формат : AVC
Формат/Информация : Advanced Video Codec
Профиль формата : High@L4.1
Параметр CABAC формата : Да
Параметр ReFrames формата : 3 кадра
Идентификатор кодека : V_MPEG4/ISO/AVC
Продолжительность : 2 ч. 5 м.
Вид битрейта : Переменный
Битрейт : 9602 Кбит/сек
Максимальный битрейт : 10000 Кбит/сек
Ширина : 1280 пикселей
Высота : 534 пикселя
Соотношение сторон : 2,40:1
Режим частоты кадров : Постоянный
Частота кадров : 59,880 кадров/сек
Частота кадров в оригинале : 59,940 кадров/сек
Стандарт вещания : PAL
Цветовое пространство : YUV
Субдискретизация насыщенности : 4:2:0
Битовая глубина : 8 бит
Тип развёртки : Прогрессивная
Бит/(Пиксели*Кадры) : 0.235
Размер потока : 8,43 Гбайт (90%)
Заголовок : www.60-fps.org
Язык : English
Default : Да
Forced : Нет
Основные цвета : BT.601 NTSC
Характеристики трансфера : BT.601
Коэффициенты матрицы : BT.601
colour_range : Limited
Аудио #1
Идентификатор : 2
Формат : AC-3
Формат/Информация : Audio Coding 3
Расширение режима : CM (complete main)
Параметр Endianness формата : Big
Идентификатор кодека : A_AC3
Продолжительность : 2 ч. 5 м.
Вид битрейта : Постоянный
Битрейт : 448 Кбит/сек
Каналы : 6 каналов
Расположение каналов : Front: L C R, Side: L R, LFE
Частота : 48,0 КГц
Битовая глубина : 16 бит
Метод сжатия : С потерями
Размер потока : 403 Мбайт (4%)
Заголовок : Дублированный 5.1
Язык : Russian
Default : Да
Forced : Нет
Аудио #2
Идентификатор : 3
Формат : AC-3
Формат/Информация : Audio Coding 3
Расширение режима : CM (complete main)
Параметр Endianness формата : Big
Идентификатор кодека : A_AC3
Продолжительность : 2 ч. 5 м.
Вид битрейта : Постоянный
Битрейт : 448 Кбит/сек
Каналы : 6 каналов
Расположение каналов : Front: L C R, Side: L R, LFE
Частота : 48,0 КГц
Битовая глубина : 16 бит
Метод сжатия : С потерями
Размер потока : 403 Мбайт (4%)
Заголовок : ENG
Язык : English
Default : Нет
Forced : Нет
Текст #1
Идентификатор : 4
Формат : UTF-8
Идентификатор кодека : S_TEXT/UTF8
Идентификатор кодека/Информация : UTF-8 Plain Text
Язык : Russian
Default : Нет
Forced : Нет
Текст #2
Идентификатор : 5
Формат : UTF-8
Идентификатор кодека : S_TEXT/UTF8
Идентификатор кодека/Информация : UTF-8 Plain Text
Язык : English
Default : Нет
Forced : Нет
Меню
00:00:00.000 : en:00:00:00.000
00:07:40.334 : en:00:07:40.334
00:14:20.734 : en:00:14:20.734
00:20:31.563 : en:00:20:31.563
00:27:48.416 : en:00:27:48.416
00:34:54.801 : en:00:34:54.801
00:41:02.626 : en:00:41:02.626
00:46:28.786 : en:00:46:28.786
00:53:05.515 : en:00:53:05.515
01:01:00.239 : en:01:01:00.239
01:08:22.556 : en:01:08:22.556
01:14:43.812 : en:01:14:43.812
01:21:31.261 : en:01:21:31.261
01:31:01.706 : en:01:31:01.706
01:38:42.750 : en:01:38:42.750
01:45:41.084 : en:01:45:41.084
01:52:48.970 : en:01:52:48.970
01:58:00.114 : en:01:58:00.114

Релиз подготовлен 60 - fps

[60-fps.org].t1125.torrent
Торрент: Зарегистрирован [ 2015-10-03 19:45 ] · 7A75772E31D2F8CC8BF7C1DB060791C930AC7EDE

Скачать .torrent

Скачать

24 KB

Статус: проверено
Скачан: 353 раз
Поблагодарили:
Размер: 9,41 GB
 
Похожие Темы


Последний раз редактировалось: Kryl (2015-10-23 13:56), всего редактировалось 14 раз(а)

[Цитировать]
mimok

ну и как фильма?

[Цитировать]
Kryl

3853ну и как фильма?
Не смотрел еще )

[Цитировать]
mimok

4 скрин удачный, "пенсия"

[Цитировать]
Kryl

38554 скрин удачный, "пенсия"
:ag: :ag: :ag:

[Цитировать]
maxxximka

отличный филльм

[Цитировать]
ENIGMA

Спасибо - качество зачетное!

[Цитировать]
DoberMan

Фильм отличный!

[Цитировать]
rembo1410

спасибо
 
Показать сообщения:    

Текущее время: 20-Фев 02:22

Часовой пояс: UTC + 3


Вы не можете начинать темы
Вы не можете отвечать на сообщения
Вы не можете редактировать свои сообщения
Вы не можете удалять свои сообщения
Вы не можете голосовать в опросах
Вы не можете прикреплять файлы к сообщениям
Вы можете скачивать файлы