[Цитировать]
Kryl

«Судьба переписана»- Информация
Название: Терминатор: Генезис
Оригинальное название: Terminator: Genisys
Год выхода: 2015
Жанр: Фантастика, боевик, триллер, приключения
Режиссер: Алан Тейлор
Сценарий: Лаэта Калогридис, Патрик Люссье, Джеймс Кэмерон
Продюсер: Дэвид Эллисон, Дэна Голдберг, Билл Карраро
В ролях:
Арнольд Шварценеггер Джейсон Кларк Эмилия Кларк Джай Кортни Дж.К. Симмонс Дайо Окенийи Мэтт Смит, Кортни Б. Вэнс, Бён Хон Ли, Майкл Глэдис, Сандрин Холт, Уэйн Баструп, Грегори Алан Уильямс, Отто Санчес, Мэтти Ферраро, Грифф Ферст, Йен Этеридж, Нолан Гросс, Сет Меривезер, Афемо Омилами
--Сюжет:
Когда Джон Коннор, лидер сопротивления, посылает сержанта Кайла Риза назад в 1984 год, чтобы защитить Сару Коннор и спасти будущее, неожиданный поворот событий создает разлом во времени. Сержант Риз оказывается в новой, незнакомой версии прошлого, где он встречает неожиданных союзников, в том числе Терминатора, новых опасных врагов, и новую миссию: изменить будущее…- - Страна: США
Продолжительность: 02:05:43
-- Файл
Кодек: MPEG4/ISO/AVC H.264
Формат: MKV
Качество: BDRip 720p
Видео: 1280x536 | 59.940 fps | 3.8 Мбит/сек
Аудио 1: AC3 | 5.1 | 48 kHz | 640 kbps | 16 bit | Дублированный |
Аудио 2: AC3 | 5.1 | 48 kHz | 640 kbps | 16 bit | ENG |
Субтитры: Русские, английские

MedifInfo

Video
ID : 1
Format : AVC
Format/Info : Advanced Video Codec
Format profile : High@L4.1
Format settings, CABAC : Yes
Format settings, ReFrames : 9 frames
Codec ID : V_MPEG4/ISO/AVC
Duration : 2h 5mn
Bit rate : 3 851 Kbps
Width : 1 280 pixels
Height : 536 pixels
Display aspect ratio : 2.40:1
Frame rate mode : Constant
Frame rate : 59.880 fps
Original frame rate : 59.940 fps
Color space : YUV
Chroma subsampling : 4:2:0
Bit depth : 8 bits
Scan type : Progressive
Bits/(Pixel*Frame) : 0.094
Stream size : 3.38 GiB (74%)
Writing library : x264 core 146 r2538 121396c
Encoding settings : cabac=1 / ref=9 / deblock=1:0:0 / analyse=0x3:0x113 / me=umh / subme=10 / psy=1 / psy_rd=1.00:0.00 / mixed_ref=1 / me_range=24 / chroma_me=1 / trellis=2 / 8x8dct=1 / cqm=0 / deadzone=21,11 / fast_pskip=0 / chroma_qp_offset=-2 / threads=12 / lookahead_threads=1 / sliced_threads=0 / nr=0 / decimate=1 / interlaced=0 / bluray_compat=0 / constrained_intra=0 / bframes=5 / b_pyramid=2 / b_adapt=2 / b_bias=0 / direct=3 / weightb=1 / open_gop=0 / weightp=2 / keyint=250 / keyint_min=25 / scenecut=40 / intra_refresh=0 / rc_lookahead=40 / rc=crf / mbtree=0 / crf=18.0 / qcomp=0.60 / qpmin=0 / qpmax=69 / qpstep=4 / vbv_maxrate=14000 / vbv_bufsize=14000 / crf_max=0.0 / nal_hrd=none / filler=0 / ip_ratio=1.40 / pb_ratio=1.30 / aq=3:1.00
Language : English
Default : Yes
Forced : No
Audio #1
ID : 2
Format : AC-3
Format/Info : Audio Coding 3
Mode extension : CM (complete main)
Format settings, Endianness : Big
Codec ID : A_AC3
Duration : 2h 5mn
Bit rate mode : Constant
Bit rate : 640 Kbps
Channel(s) : 6 channels
Channel positions : Front: L C R, Side: L R, LFE
Sampling rate : 48.0 KHz
Compression mode : Lossy
Stream size : 575 MiB (12%)
Title : Dub
Language : Russian
Default : Yes
Forced : No
Audio #2
ID : 3
Format : AC-3
Format/Info : Audio Coding 3
Mode extension : CM (complete main)
Format settings, Endianness : Big
Codec ID : A_AC3
Duration : 2h 5mn
Bit rate mode : Constant
Bit rate : 640 Kbps
Channel(s) : 6 channels
Channel positions : Front: L C R, Side: L R, LFE
Sampling rate : 48.0 KHz
Compression mode : Lossy
Stream size : 575 MiB (12%)
Title : Eng
Language : English
Default : No
Forced : No
Text #1
ID : 4
Format : UTF-8
Codec ID : S_TEXT/UTF8
Codec ID/Info : UTF-8 Plain Text
Title : Rus forced
Language : Russian
Default : Yes
Forced : Yes
Text #2
ID : 5
Format : UTF-8
Codec ID : S_TEXT/UTF8
Codec ID/Info : UTF-8 Plain Text
Title : Rus full
Language : Russian
Default : No
Forced : No
Text #3
ID : 6
Format : UTF-8
Codec ID : S_TEXT/UTF8
Codec ID/Info : UTF-8 Plain Text
Title : Eng full
Language : English
Default : No
Forced : No
Menu
00:00:00.000 : :Chapter 01
00:07:40.334 : :Chapter 02
00:14:20.734 : :Chapter 03
00:20:31.563 : :Chapter 04
00:27:48.416 : :Chapter 05
00:34:54.801 : :Chapter 06
00:41:02.626 : :Chapter 07
00:46:28.786 : :Chapter 08
00:53:05.515 : :Chapter 09
01:01:00.238 : :Chapter 10
01:08:22.555 : :Chapter 11
01:14:43.812 : :Chapter 12
01:21:31.261 : :Chapter 13
01:31:01.706 : :Chapter 14
01:38:42.750 : :Chapter 15
01:45:41.084 : :Chapter 16
01:52:48.970 : :Chapter 17
01:58:00.114 : :Chapter 18
02:05:42.743 : :Chapter 19
[60-fps.org].t1387.torrent
Торрент: Зарегистрирован [ 2015-11-01 20:53 ] · 20D90FCA253305D6CE6478771316C1316B34F260

Скачать .torrent

Скачать

24 KB

Статус: проверено
Скачан: 169 раз
Поблагодарили:
Размер: 4,6 GB
 
Похожие Темы

[Цитировать]
Kryl

На первом скриншоте :ag: :ag: :ag: Медведев решил подзаработать :ag: :ag: :ag:

[Цитировать]
mimok

второй тоже удался :af:

[Цитировать]
Аркадий

Добрый день, не поделитесь соображениями, почему большинство релизеров, в т.ч. и Вы, делают рипы в 720 пикселей? Просто быстрее или есть какие-то технические моменты?

[Цитировать]
mimok

4277Добрый день, не поделитесь соображениями, почему большинство релизеров, в т.ч. и Вы, делают рипы в 720 пикселей? Просто быстрее или есть какие-то технические моменты?
1. Быстрее
2. 1080р не все встроенные в телек плееры читают
3. Размер в 720р меньше

[Цитировать]
Stips

Спасибо вам большое за раздачу!!!
 
Показать сообщения:    

Текущее время: 22-Фев 16:25

Часовой пояс: UTC + 3


Вы не можете начинать темы
Вы не можете отвечать на сообщения
Вы не можете редактировать свои сообщения
Вы не можете удалять свои сообщения
Вы не можете голосовать в опросах
Вы не можете прикреплять файлы к сообщениям
Вы можете скачивать файлы