Терминатор / The Terminator (1984)

«Твое будущее в его руках»- Информация
Название: Терминатор
Оригинальное название: The Terminator
Год выхода: 1984
Жанр: Фантастика, боевик, триллер
Режиссер: Джеймс Кэмерон
Сценарий: Джеймс Кэмерон, Гейл Энн Хёрд, Уильям Уишер мл.
Продюсер: Гейл Энн Хёрд, Джон Дэйли, Дерек Гибсон
В ролях: Арнольд Шварценеггер, Майкл Бьен, Линда Хэмилтон, Пол Уинфилд, Лэнс Хенриксен, Бесс Мотта, Эрл Боэн, Рик Россович, Дик Миллер, Шоун Шеппс, Брюс М. Кернер, Франко Колумбу, Билл Пэкстон, Брэд Рирден, Брайан Томпсон, Уильям Уишер мл., Кен Фриц, Том Оберхауз, Джо Фараго, Хетти Линн Хёртес, Тони Мирелез, Филип Гордон, Энтони Тружильо, Стэн Йейл, Аль Кан, Лесли Моррис, Хью Фаррингтон, Харриет Медин, Лори Фрэзиер, Джеймс Ралстон, Норман Фридман, Барбара Пауэрс, Уэйн Стоун, Дэвид Пирс, Джон Е. Бристоль, Уэбстер Уильямс, Патрик Пинни, Чино "Фэтс" Уильямс, Грегори Роббинс, Марианн Мюллерлейл
--Сюжет:
История противостояния солдата Кайла Риза и киборга-терминатора, прибывших в 1984-й год из пост-апокалиптического будущего, где миром правят машины-убийцы, а человечество находится на грани вымирания. Цель киборга: убить девушку по имени Сара Коннор, чей ещё нерождённый сын к 2029 году выиграет войну человечества с машинами. Цель Риза: спасти Сару и остановить Терминатора любой ценой.- - Страна: Великобритания, США
Продолжительность: 01:47:24
-- Файл
Кодек: MPEG4/ISO/AVC H.264
Формат: MKV
Качество: BDRip-AVC 60 fps
Видео: 1024x552 (1.855) | 59.940 fps | 4.6 Мбит/сек
Аудио: AC3 | 5.1 | 48 kHz | 640 kbps | 16 bit | Дубляж |
Субтитры: русские (Форсированные), русские (Полные), английские (Полные)

MedifInfo

Video
ID : 1
Format : AVC
Format/Info : Advanced Video Codec
Format profile : High@L4.1
Format settings, CABAC : Yes
Format settings, ReFrames : 4 frames
Codec ID : V_MPEG4/ISO/AVC
Duration : 1h 47mn
Bit rate : 4 600 Kbps
Width : 1 024 pixels
Height : 552 pixels
Display aspect ratio : 1.855
Frame rate : 59.940 fps
Color space : YUV
Chroma subsampling : 4:2:0
Bit depth : 8 bits
Scan type : Progressive
Bits/(Pixel*Frame) : 0.136
Stream size : 3.37 GiB (86%)
Title : Tiberiumsun69
Writing library : x264 core 146 r2538 121396c
Encoding settings : cabac=1 / ref=3 / deblock=1:0:0 / analyse=0x3:0x113 / me=umh / subme=9 / psy=1 / psy_rd=1.00:0.10 / mixed_ref=1 / me_range=32 / chroma_me=1 / trellis=2 / 8x8dct=1 / cqm=0 / deadzone=21,11 / fast_pskip=0 / chroma_qp_offset=-3 / threads=12 / lookahead_threads=3 / sliced_threads=0 / nr=0 / decimate=1 / interlaced=0 / bluray_compat=0 / constrained_intra=0 / bframes=16 / b_pyramid=2 / b_adapt=2 / b_bias=0 / direct=3 / weightb=1 / open_gop=0 / weightp=2 / keyint=600 / keyint_min=59 / scenecut=40 / intra_refresh=0 / rc_lookahead=40 / rc=2pass / mbtree=0 / bitrate=4600 / ratetol=1.0 / qcomp=0.60 / qpmin=0 / qpmax=69 / qpstep=4 / cplxblur=20.0 / qblur=0.5 / vbv_maxrate=14000 / vbv_bufsize=14000 / nal_hrd=none / filler=0 / ip_ratio=1.40 / pb_ratio=1.30 / aq=1:1.00
Language : English
Default : Yes
Forced : No
Audio
ID : 2
Format : AC-3
Format/Info : Audio Coding 3
Mode extension : CM (complete main)
Codec ID : A_AC3
Duration : 1h 47mn
Bit rate mode : Constant
Bit rate : 640 Kbps
Channel(s) : 6 channels
Channel positions : Front: L C R, Side: L R, LFE
Sampling rate : 48.0 KHz
Bit depth : 16 bits
Compression mode : Lossy
Stream size : 492 MiB (12%)
Title : Дубляж
Language : Russian
Default : Yes
Forced : No
Text #1
ID : 3
Format : UTF-8
Codec ID : S_TEXT/UTF8
Codec ID/Info : UTF-8 Plain Text
Title : Форсированные
Language : Russian
Default : Yes
Forced : No
Text #2
ID : 4
Format : UTF-8
Codec ID : S_TEXT/UTF8
Codec ID/Info : UTF-8 Plain Text
Title : Полные
Language : Russian
Default : No
Forced : No
Text #3
ID : 5
Format : UTF-8
Codec ID : S_TEXT/UTF8
Codec ID/Info : UTF-8 Plain Text
Title : Полные
Language : English
Default : No
Forced : No
Menu
00:00:00.000 : en:2029 a.D./Main Title
00:03:32.253 : en:The Arrival
00:05:18.151 : en:New Wardrobe
00:06:31.015 : en:Second Visitor
00:11:38.322 : en:Hard-Working Girl
00:13:45.324 : en:Gun Men
00:15:11.827 : en:"Sarah Connor?"
00:20:44.618 : en:Phone Book Rampage
00:22:49.618 : en:Last One Left
00:29:49.787 : en:Uninvited Guest
00:33:15.034 : en:The Last Day of Disco
00:38:47.116 : en:Running Commentary
00:41:25.191 : en:The Possible Future
00:47:46.488 : en:"Drive!"
00:50:39.995 : en:Safety in Uniforms
00:54:41.569 : en:Self-Service
00:59:04.916 : en:I'll Be Back!"
01:03:53.538 : en:Mother of the Future
01:09:37.548 : en:The War to Come
01:14:08.986 : en:Answering Machine
01:15:00.078 : en:Not Mom
01:17:18.800 : en:Recipe for Disaster
01:18:30.372 : en:Present for the Future
01:23:00.892 : en:Hot Pursuit
01:26:24.721 : en:Run Over By a Truck
01:30:22.583 : en:Hunk O' Burning Steel
01:32:19.367 : en:Factory Foolery
01:35:52.121 : en:Head Without Heels
01:39:53.862 : en:Survivor
01:40:18.721 : en:Tapes for John
01:40:49.334 : en:A Storm Is Coming
01:43:12.895 : en:End Credits

Терминатор 2: Судный день / Terminator 2: Judgment Day (1991)

«Same Make. Same Model. New Mission»- Информация
Название: Терминатор 2: Судный день
Оригинальное название: Terminator 2: Judgment Day
Год выхода: 1991
Жанр: Фантастика, боевик, триллер
Режиссер: Джеймс Кэмерон
Сценарий: Джеймс Кэмерон, Уильям Уишер мл.
Продюсер: Джеймс Кэмерон, Стефани Остин, Гейл Энн Хёрд, ...
В ролях: Арнольд Шварценеггер, Линда Хэмилтон, Эдвард Ферлонг, Роберт Патрик, Эрл Боэн, Джо Мортон, С. Эпата Меркерсон, Кастуло Герра, Дэнни Кукси, Дженетт Голдстин
--Сюжет:
Прошло более десяти лет с тех пор, как киборг-терминатор из 2029 года пытался уничтожить Сару Коннор — женщину, чей будущий сын выиграет войну человечества против машин.
Теперь у Сары родился сын Джон и время, когда он поведёт за собой выживших людей на борьбу с машинами, неумолимо приближается. Именно в этот момент из постапокалиптического будущего прибывает новый терминатор — практически неуязвимый и способный принимать любое обличье. Цель нового терминатора уже не Сара, а уничтожение молодого Джона Коннора.
Однако шансы Джона на спасение существенно повышаются, когда на помощь приходит перепрограммированный сопротивлением терминатор предыдущего поколения. Оба киборга вступают в смертельный бой, от исхода которого зависит судьба человечества.
- - Страна: США, Франция
Продолжительность: 02:36:08
-- Файл
Кодек: MPEG4/ISO/AVC H.264
Формат: MKV
Качество: BDRip-AVC 60 fps
Видео: 1024x432 (2.35:1) | 59.940 fps | 3.1 Мбит/сек
Аудио: AC3 | 5.1 | 48 kHz | 448 kbps | 16 bit | Профессиональный (многоголосый) |
Субтитры: русские (Полные), английские (Полные)

MedifInfo

Video
ID : 1
Format : AVC
Format/Info : Advanced Video Codec
Format profile : High@L4.1
Format settings, CABAC : Yes
Format settings, ReFrames : 4 frames
Codec ID : V_MPEG4/ISO/AVC
Duration : 2h 36mn
Bit rate : 3 160 Kbps
Width : 1 024 pixels
Height : 432 pixels
Display aspect ratio : 2.35:1
Frame rate : 59.940 fps
Color space : YUV
Chroma subsampling : 4:2:0
Bit depth : 8 bits
Scan type : Progressive
Bits/(Pixel*Frame) : 0.119
Stream size : 3.37 GiB (86%)
Title : Tiberiumsun69
Writing library : x264 core 146 r2538 121396c
Encoding settings : cabac=1 / ref=3 / deblock=1:0:0 / analyse=0x3:0x113 / me=umh / subme=11 / psy=1 / psy_rd=1.00:0.10 / mixed_ref=1 / me_range=32 / chroma_me=1 / trellis=2 / 8x8dct=1 / cqm=0 / deadzone=21,11 / fast_pskip=0 / chroma_qp_offset=-3 / threads=12 / lookahead_threads=3 / sliced_threads=0 / nr=0 / decimate=1 / interlaced=0 / bluray_compat=0 / constrained_intra=0 / bframes=16 / b_pyramid=2 / b_adapt=2 / b_bias=0 / direct=3 / weightb=1 / open_gop=0 / weightp=2 / keyint=600 / keyint_min=59 / scenecut=40 / intra_refresh=0 / rc_lookahead=40 / rc=2pass / mbtree=0 / bitrate=3160 / ratetol=1.0 / qcomp=0.60 / qpmin=0 / qpmax=69 / qpstep=4 / cplxblur=20.0 / qblur=0.5 / vbv_maxrate=14000 / vbv_bufsize=14000 / nal_hrd=none / filler=0 / ip_ratio=1.40 / pb_ratio=1.30 / aq=1:1.00
Language : English
Default : Yes
Forced : No
Audio
ID : 2
Format : AC-3
Format/Info : Audio Coding 3
Mode extension : CM (complete main)
Codec ID : A_AC3
Duration : 2h 36mn
Bit rate mode : Constant
Bit rate : 448 Kbps
Channel(s) : 6 channels
Channel positions : Front: L C R, Side: L R, LFE
Sampling rate : 48.0 KHz
Bit depth : 16 bits
Compression mode : Lossy
Stream size : 500 MiB (12%)
Title : Многоголосый, закадровый Киномания
Language : Russian
Default : Yes
Forced : No
Text #1
ID : 3
Format : UTF-8
Codec ID : S_TEXT/UTF8
Codec ID/Info : UTF-8 Plain Text
Title : Полные
Language : Russian
Default : No
Forced : No
Text #2
ID : 4
Format : UTF-8
Codec ID : S_TEXT/UTF8
Codec ID/Info : UTF-8 Plain Text
Title : Полные
Language : English
Default : No
Forced : No
Menu
00:00:00.000 : en:Prologue
00:00:52.092 : en:Future War
00:03:38.301 : en:Maint Titles
00:05:36.836 : en:A Terminator Arrives
00:06:48.408 : en:Biker Bar
00:09:11.217 : en:Bad to the Bone
00:10:33.758 : en:T-1000 Arrives
00:12:31.500 : en:Meet John Conner
00:13:38.651 : en:Sarah Conner
00:15:31.722 : en:Ain't No Trouble
00:16:31.907 : en:T-1000 Visits Voights
00:17:41.310 : en:Easy Money
00:19:12.150 : en:Not Much Time Time Left in the World
00:22:29.222 : en:Sanity Review
00:25:56.471 : en:Cyberdyne Systems
00:27:29.981 : en:Model Citizen
00:28:53.189 : en:Target Acquired
00:29:46.659 : en:The Galleria
00:31:23.047 : en:Zeroed in the Corridor
00:33:59.579 : en:In the Streets
00:35:10.233 : en:Canal Chase
00:38:50.327 : en:Time Out
00:41:33.407 : en:Never This Nice
00:44:16.652 : en:T-1000's Search
00:46:12.768 : en:Photos
00:47:28.136 : en:Mission Parameters
00:51:14.696 : en:Pescadero State Hospital
00:54:26.179 : en:Lewis the Guard
00:56:10.742 : en:Sarah Breaks Out
00:57:48.298 : en:215 Bones
00:58:31.758 : en:I Swear
00:59:40.743 : en:A Syringe-Point
01:01:50.665 : en:"Come with Me If You Want to Live"
01:03:18.127 : en:Escape From Pescadero
01:07:51.358 : en:Security Car
01:09:26.620 : en:Nice Bike
01:10:07.536 : en:Night Repairs
01:11:30.411 : en:Resetting the Switch
01:14:56.658 : en:Heading South
01:15:35.113 : en:No Problemo
01:16:24.955 : en:Smile?
01:17:52.959 : en:Detailed Files
01:20:15.268 : en:Meet the Pilot
01:22:35.783 : en:Salceda's Camp
01:25:05.390 : en:Weapons Cache
01:27:51.890 : en:Fathers and Sons
01:32:12.151 : en:Nuclear Nightmare
01:34:29.121 : en:Sarah's Decision
01:34:59.401 : en:No Fate
01:36:42.504 : en:Sarah's Solution
01:43:01.842 : en:Changing the Way It Goes
01:45:50.886 : en:Target: Cyberdyne
01:47:52.381 : en:All the Way
01:49:52.502 : en:T-1000 at Dyson's
01:50:32.167 : en:A Lot of Years
01:51:22.759 : en:Company
01:53:30.887 : en:Terminator Serves Notice
01:55:20.121 : en:In the Vault
01:55:52.612 : en:S.W.a.T. Offensive
01:58:13.753 : en:Death of Dyson and Cyberdyne
01:59:44.760 : en:"I'll Be Back"
02:01:25.194 : en:Borrowing the S.W.a.T. Van
02:02:37.808 : en:T-1000 Acquires a Helicopter
02:03:36.367 : en:Freeway Chase
02:06:15.359 : en:Tanker Chase
02:10:20.145 : en:Fire and Ice
02:13:49.437 : en:Glitching
02:14:28.768 : en:Sticking Together
02:15:01.926 : en:Hand to Hand
02:16:11.663 : en:Deepter Into the Steel Mill
02:16:46.781 : en:Sarahs' Stand
02:18:43.231 : en:Terminator Skewered
02:20:43.058 : en:Sarah and John
02:21:15.674 : en:Alternate Power
02:21:51.502 : en:Two Sarah's
02:23:22.176 : en:Terminated
02:25:35.393 : en:One More Chip
02:29:26.373 : en:The Unknown Future
02:31:24.116 : en:End Titles
02:35:25.440 : en:Restoration Credits
02:36:07.983 : en:End

Терминатор 3: Восстание машин / Terminator 3: Rise of the Machines (2003)

«The Machines Will Rise»- Информация
Название: Терминатор 3: Восстание машин
Оригинальное название: Terminator 3: Rise of the Machines
Год выхода: 2003
Жанр: Фантастика, боевик, триллер
Режиссер: Джонатан Мостоу
Сценарий: Джон Д. Бранкато, Майкл Феррис, Джеймс Кэмерон
Продюсер: Хэл Либерман, Джоэль Б. Майклс, Эндрю Дж. Вайна
В ролях: Арнольд Шварценеггер, Ник Стал, Клэр Дэйнс, Кристанна Локен, Дэвид Эндрюс, Марк Фамиглетти, Эрл Боэн, Мойра Харрис, Чоппер Бернет, Кристофер Лоуфорд
--Сюжет:
Прошло десять лет с тех пор, как Джон Коннор помог предотвратить Судный День и спасти человечество от массового уничтожения. Теперь ему 25, Коннор не живет «как все» — у него нет дома, нет кредитных карт, нет сотового телефона и никакой работы.
Его существование нигде не зарегистрировано. Он не может быть прослежен системой Skynet — высокоразвитой сетью машин, которые когда-то попробовали убить его и развязать войну против человечества. Пока из теней будущего не появляется T-X — Терминатрикс, самый сложный киборг-убийца Skynet.
Посланная назад сквозь время, чтобы завершить работу, начатую её предшественником, T-1000, эта машина так же упорна, как прекрасен её человеческий облик. Теперь единственная надежда Коннору выжить — Терминатор, его таинственный прежний убийца. Вместе они должны одержать победу над новыми технологиями T-X и снова предотвратить Судный День…
- - Страна: США, Германия, Великобритания
Продолжительность: 01:49:06
-- Файл
Кодек: MPEG4/ISO/AVC H.264
Формат: MKV
Качество: BDRip-AVC 60 fps
Видео: 1024x424 (2.40:1) | 59.940 fps | 3.9 Мбит/сек
Аудио: AC3 | 5.1 | 48 kHz | 448 kbps | 16 bit | Дубляж |
Субтитры: русские (Форсированные), русские (Полные), английские (Полные)

MedifInfo

Video
ID : 1
Format : AVC
Format/Info : Advanced Video Codec
Format profile : High@L4.1
Format settings, CABAC : Yes
Format settings, ReFrames : 4 frames
Codec ID : V_MPEG4/ISO/AVC
Duration : 1h 49mn
Bit rate : 3 900 Kbps
Width : 1 024 pixels
Height : 424 pixels
Display aspect ratio : 2.40:1
Frame rate : 59.940 fps
Color space : YUV
Chroma subsampling : 4:2:0
Bit depth : 8 bits
Scan type : Progressive
Bits/(Pixel*Frame) : 0.150
Stream size : 2.91 GiB (88%)
Title : Tiberiumsun69
Writing library : x264 core 146 r2538 121396c
Encoding settings : cabac=1 / ref=3 / deblock=1:0:0 / analyse=0x3:0x113 / me=umh / subme=9 / psy=1 / psy_rd=1.00:0.10 / mixed_ref=1 / me_range=32 / chroma_me=1 / trellis=2 / 8x8dct=1 / cqm=0 / deadzone=21,11 / fast_pskip=0 / chroma_qp_offset=-3 / threads=12 / lookahead_threads=3 / sliced_threads=0 / nr=0 / decimate=1 / interlaced=0 / bluray_compat=0 / constrained_intra=0 / bframes=16 / b_pyramid=2 / b_adapt=2 / b_bias=0 / direct=3 / weightb=1 / open_gop=0 / weightp=2 / keyint=600 / keyint_min=59 / scenecut=40 / intra_refresh=0 / rc_lookahead=40 / rc=2pass / mbtree=0 / bitrate=3900 / ratetol=1.0 / qcomp=0.60 / qpmin=0 / qpmax=69 / qpstep=4 / cplxblur=20.0 / qblur=0.5 / vbv_maxrate=14000 / vbv_bufsize=14000 / nal_hrd=none / filler=0 / ip_ratio=1.40 / pb_ratio=1.30 / aq=1:1.00
Language : English
Default : Yes
Forced : No
Audio
ID : 2
Format : AC-3
Format/Info : Audio Coding 3
Mode extension : CM (complete main)
Codec ID : A_AC3
Duration : 1h 49mn
Bit rate mode : Constant
Bit rate : 448 Kbps
Channel(s) : 6 channels
Channel positions : Front: L C R, Side: L R, LFE
Sampling rate : 48.0 KHz
Bit depth : 16 bits
Compression mode : Lossy
Stream size : 350 MiB (10%)
Title : Дубляж
Language : Russian
Default : Yes
Forced : No
Text #1
ID : 3
Format : UTF-8
Codec ID : S_TEXT/UTF8
Codec ID/Info : UTF-8 Plain Text
Title : Форсированные
Language : Russian
Default : Yes
Forced : No
Text #2
ID : 4
Format : UTF-8
Codec ID : S_TEXT/UTF8
Codec ID/Info : UTF-8 Plain Text
Title : Полные
Language : Russian
Default : No
Forced : No
Text #3
ID : 5
Format : UTF-8
Codec ID : S_TEXT/UTF8
Codec ID/Info : UTF-8 Plain Text
Title : Полные
Language : English
Default : No
Forced : No
Menu
00:00:00.000 : :00:00:00.000
00:00:52.552 : :00:00:52.552
00:02:09.671 : :00:02:09.671
00:02:54.341 : :00:02:54.341
00:03:50.730 : :00:03:50.730
00:05:09.809 : :00:05:09.809
00:06:21.214 : :00:06:21.214
00:07:28.823 : :00:07:28.823
00:08:30.135 : :00:08:30.135
00:09:22.437 : :00:09:22.437
00:11:30.940 : :00:11:30.940
00:15:05.488 : :00:15:05.488
00:16:23.858 : :00:16:23.858
00:18:06.294 : :00:18:06.294
00:18:55.968 : :00:18:55.968
00:20:26.308 : :00:20:26.308
00:22:28.514 : :00:22:28.514
00:23:59.605 : :00:23:59.605
00:24:59.164 : :00:24:59.164
00:26:25.042 : :00:26:25.042
00:27:19.137 : :00:27:19.137
00:29:11.249 : :00:29:11.249
00:29:54.376 : :00:29:54.376
00:32:14.266 : :00:32:14.266
00:34:24.646 : :00:34:24.646
00:35:13.111 : :00:35:13.111
00:36:04.245 : :00:36:04.245
00:38:19.506 : :00:38:19.506
00:40:30.511 : :00:40:30.511
00:42:29.255 : :00:42:29.255
00:45:51.082 : :00:45:51.082
00:48:47.007 : :00:48:47.007
00:51:03.686 : :00:51:03.686
00:52:21.638 : :00:52:21.638
00:55:05.802 : :00:55:05.802
00:56:33.348 : :00:56:33.348
00:58:11.822 : :00:58:11.822
00:59:40.035 : :00:59:40.035
01:00:11.775 : :01:00:11.775
01:02:22.447 : :01:02:22.447
01:03:47.657 : :01:03:47.657
01:06:02.125 : :01:06:02.125
01:07:45.520 : :01:07:45.520
01:09:04.349 : :01:09:04.349
01:12:16.624 : :01:12:16.624
01:14:27.421 : :01:14:27.421
01:15:43.456 : :01:15:43.456
01:19:07.534 : :01:19:07.534
01:20:18.981 : :01:20:18.981
01:21:27.216 : :01:21:27.216
01:22:41.206 : :01:22:41.206
01:23:57.199 : :01:23:57.199
01:25:03.265 : :01:25:03.265
01:25:46.391 : :01:25:46.391
01:26:30.560 : :01:26:30.560
01:27:29.035 : :01:27:29.035
01:29:07.050 : :01:29:07.050
01:31:58.388 : :01:31:58.388
01:33:37.070 : :01:33:37.070
01:34:32.333 : :01:34:32.333
01:35:54.040 : :01:35:54.040
01:37:31.304 : :01:37:31.304
01:39:22.915 : :01:39:22.915
01:41:00.096 : :01:41:00.096

Терминатор: Да придёт спаситель / Terminator Salvation (2009)

«Начало конца»- Информация
Название: Терминатор: Да придёт спаситель
Оригинальное название: Terminator Salvation
Год выхода: 2009
Жанр: Фантастика, боевик, триллер
Режиссер: МакДжи
Сценарий: Джон Д. Бранкато, Майкл Феррис
Продюсер: Дерек Андерсон, Мориц Борман, Виктор Кубичек, ...
В ролях: Кристиан Бэйл, Сэм Уортингтон, Антон Ельчин, Мун Бладгуд, Брайс Даллас Ховард, Коммон, Джейн Александр, Майкл Айронсайд, Иван Г’Вера, Крис Браунинг
--Сюжет:
2018 год. В мире наступила война с машинами. Джон Коннор — человек, чья судьба — возглавить Сопротивление электронному мозгу Скайнет и армии Терминаторов. Но в будущее, с верой в которое он возвращен, вклинивается таинственный Маркус Райт: незнакомец, чьи последние воспоминания рисуют камеру смертников.
Коннор должен понять, кто такой этот Маркус и с какой целью пожаловал к людям. И на фоне подготовки Скайнетом решающего удара, Коннор и Райт отправляются в путешествие, приводящее их в самую сердцевину взбунтовавшейся операционной системы, где открывается ужасная тайна, кроющаяся за потенциальным уничтожением человечества.
- - Страна: США, Германия, Великобритания, Италия
Продолжительность: 01:57:30
-- Файл
Кодек: MPEG4/ISO/AVC H.264
Формат: MKV
Качество: BDRip-AVC 60 fps
Видео: 1024x424 (2.40:1) | 59.940 fps | 3.9 Мбит/сек
Аудио: AC3 | 5.1 | 48 kHz | 448 kbps | 16 bit | Дубляж + AVO на реж. вставки |
Субтитры: русские (Полные), английские (Полные)

MedifInfo

Video
ID : 1
Format : AVC
Format/Info : Advanced Video Codec
Format profile : High@L4.1
Format settings, CABAC : Yes
Format settings, ReFrames : 4 frames
Codec ID : V_MPEG4/ISO/AVC
Duration : 1h 57mn
Bit rate : 3 900 Kbps
Width : 1 024 pixels
Height : 424 pixels
Display aspect ratio : 2.40:1
Frame rate : 59.940 fps
Color space : YUV
Chroma subsampling : 4:2:0
Bit depth : 8 bits
Scan type : Progressive
Bits/(Pixel*Frame) : 0.150
Stream size : 3.13 GiB (88%)
Title : Tiberiumsun69
Writing library : x264 core 146 r2538 121396c
Encoding settings : cabac=1 / ref=3 / deblock=1:0:0 / analyse=0x3:0x113 / me=umh / subme=9 / psy=1 / psy_rd=1.00:0.10 / mixed_ref=1 / me_range=32 / chroma_me=1 / trellis=2 / 8x8dct=1 / cqm=0 / deadzone=21,11 / fast_pskip=0 / chroma_qp_offset=-3 / threads=12 / lookahead_threads=3 / sliced_threads=0 / nr=0 / decimate=1 / interlaced=0 / bluray_compat=0 / constrained_intra=0 / bframes=16 / b_pyramid=2 / b_adapt=2 / b_bias=0 / direct=3 / weightb=1 / open_gop=0 / weightp=2 / keyint=600 / keyint_min=59 / scenecut=40 / intra_refresh=0 / rc_lookahead=40 / rc=2pass / mbtree=0 / bitrate=3900 / ratetol=1.0 / qcomp=0.60 / qpmin=0 / qpmax=69 / qpstep=4 / cplxblur=20.0 / qblur=0.5 / vbv_maxrate=14000 / vbv_bufsize=14000 / nal_hrd=none / filler=0 / ip_ratio=1.40 / pb_ratio=1.30 / aq=1:1.00
Language : English
Default : Yes
Forced : No
Audio
ID : 2
Format : AC-3
Format/Info : Audio Coding 3
Mode extension : CM (complete main)
Codec ID : A_AC3
Duration : 1h 57mn
Bit rate mode : Constant
Bit rate : 448 Kbps
Channel(s) : 6 channels
Channel positions : Front: L C R, Side: L R, LFE
Sampling rate : 48.0 KHz
Bit depth : 16 bits
Compression mode : Lossy
Stream size : 377 MiB (10%)
Title : Дубляж + Одноголосый на вставки
Language : Russian
Default : Yes
Forced : No
Text #1
ID : 3
Format : UTF-8
Codec ID : S_TEXT/UTF8
Codec ID/Info : UTF-8 Plain Text
Title : Полные
Language : Russian
Default : No
Forced : No
Text #2
ID : 4
Format : UTF-8
Codec ID : S_TEXT/UTF8
Codec ID/Info : UTF-8 Plain Text
Title : Полные
Language : English
Default : No
Forced : No
Menu
00:00:00.000 : en:Intro
00:04:11.751 : en:Death row Credits.
00:14:43.840 : en:R&D project.
00:21:53.477 : en:Survivors.
00:29:56.626 : en:Kill list.
00:35:10.272 : en:Out there alone.
00:41:51.839 : en:What happened here?
00:51:53.565 : en:You are the Resistance.
00:58:35.716 : en:Drive to stay alive.
01:08:17.088 : en:Harvester flareup.
01:17:40.859 : en:Moto-Terminator mayhem.
01:25:28.617 : en:Evasive maneuvers.
01:33:14.207 : en:On the same side.
01:37:34.049 : en:Not a good guy.
01:41:38.334 : en:Field test.
01:45:32.443 : en:Machine within.

Терминатор: Генезис / Terminator Genisys (2015)

«Судьба переписана»- Информация
Название: Терминатор: Генезис
Оригинальное название: Terminator Genisys
Год выхода: 2015
Жанр: Фантастика, боевик, триллер
Режиссер: Алан Тейлор
Сценарий: Лаэта Калогридис, Патрик Люссье, Джеймс Кэмерон
Продюсер: Дэвид Эллисон, Дэна Голдберг, Билл Карраро
В ролях: Арнольд Шварценеггер, Джейсон Кларк, Эмилия Кларк, Джай Кортни, Дж.К. Симмонс, Дайо Окенийи, Мэтт Смит, Кортни Б. Вэнс, Ли Бён Хон, Майкл Глэдис
--Сюжет:
Когда Джон Коннор, лидер сопротивления, посылает сержанта Кайла Риза назад в 1984 год, чтобы защитить Сару Коннор и спасти будущее, неожиданный поворот событий создает разлом во времени. Сержант Риз оказывается в новой, незнакомой версии прошлого, где он встречает неожиданных союзников, в том числе Терминатора, новых опасных врагов, и новую миссию: изменить будущее…- - Страна: США
Продолжительность: 02:05:43
-- Файл
Кодек: MPEG4/ISO/AVC H.264
Формат: MKV
Качество: BDRip-AVC 60 fps
Видео: 1024x432 (2.35:1) | 59.940 fps | 3.8 Мбит/сек
Аудио: AC3 | 5.1 | 48 kHz | 640 kbps | 16 bit | Дубляж |
Субтитры: русские (Полные), английские (Полные)

MedifInfo

Video
ID : 1
Format : AVC
Format/Info : Advanced Video Codec
Format profile : High@L4.1
Format settings, CABAC : Yes
Format settings, ReFrames : 4 frames
Codec ID : V_MPEG4/ISO/AVC
Duration : 2h 5mn
Bit rate : 3 845 Kbps
Width : 1 024 pixels
Height : 432 pixels
Display aspect ratio : 2.35:1
Frame rate : 59.940 fps
Color space : YUV
Chroma subsampling : 4:2:0
Bit depth : 8 bits
Scan type : Progressive
Bits/(Pixel*Frame) : 0.145
Stream size : 3.30 GiB (84%)
Title : Tiberiumsun69
Writing library : x264 core 146 r2538 121396c
Encoding settings : cabac=1 / ref=3 / deblock=1:0:0 / analyse=0x3:0x113 / me=umh / subme=9 / psy=1 / psy_rd=1.00:0.10 / mixed_ref=1 / me_range=32 / chroma_me=1 / trellis=2 / 8x8dct=1 / cqm=0 / deadzone=21,11 / fast_pskip=0 / chroma_qp_offset=-3 / threads=12 / lookahead_threads=3 / sliced_threads=0 / nr=0 / decimate=1 / interlaced=0 / bluray_compat=0 / constrained_intra=0 / bframes=16 / b_pyramid=2 / b_adapt=2 / b_bias=0 / direct=3 / weightb=1 / open_gop=0 / weightp=2 / keyint=600 / keyint_min=59 / scenecut=40 / intra_refresh=0 / rc_lookahead=40 / rc=2pass / mbtree=0 / bitrate=3845 / ratetol=1.0 / qcomp=0.60 / qpmin=0 / qpmax=69 / qpstep=4 / cplxblur=20.0 / qblur=0.5 / vbv_maxrate=14000 / vbv_bufsize=14000 / nal_hrd=none / filler=0 / ip_ratio=1.40 / pb_ratio=1.30 / aq=1:1.00
Language : English
Default : Yes
Forced : No
Audio
ID : 2
Format : AC-3
Format/Info : Audio Coding 3
Mode extension : CM (complete main)
Codec ID : A_AC3
Duration : 2h 5mn
Bit rate mode : Constant
Bit rate : 640 Kbps
Channel(s) : 6 channels
Channel positions : Front: L C R, Side: L R, LFE
Sampling rate : 48.0 KHz
Bit depth : 16 bits
Compression mode : Lossy
Stream size : 575 MiB (14%)
Title : Дубляж
Language : Russian
Default : Yes
Forced : No
Text #1
ID : 3
Format : UTF-8
Codec ID : S_TEXT/UTF8
Codec ID/Info : UTF-8 Plain Text
Title : Полные
Language : Russian
Default : No
Forced : No
Text #2
ID : 4
Format : UTF-8
Codec ID : S_TEXT/UTF8
Codec ID/Info : UTF-8 Plain Text
Title : Полные
Language : English
Default : No
Forced : No
Menu
00:00:00.000 : en:00:00:00.000
00:07:40.334 : en:00:07:40.334
00:14:20.734 : en:00:14:20.734
00:20:31.563 : en:00:20:31.563
00:27:48.416 : en:00:27:48.416
00:34:54.801 : en:00:34:54.801
00:41:02.626 : en:00:41:02.626
00:46:28.786 : en:00:46:28.786
00:53:05.515 : en:00:53:05.515
01:01:00.239 : en:01:01:00.239
01:08:22.556 : en:01:08:22.556
01:14:43.812 : en:01:14:43.812
01:21:31.261 : en:01:21:31.261
01:31:01.706 : en:01:31:01.706
01:38:42.750 : en:01:38:42.750
01:45:41.084 : en:01:45:41.084
01:52:48.970 : en:01:52:48.970
01:58:00.114 : en:01:58:00.114
 
Показать сообщения:    

Текущее время: 08-Дек 19:06

Часовой пояс: UTC + 3


Вы не можете начинать темы
Вы не можете отвечать на сообщения
Вы не можете редактировать свои сообщения
Вы не можете удалять свои сообщения
Вы не можете голосовать в опросах
Вы не можете прикреплять файлы к сообщениям
Вы не можете скачивать файлы