[Цитировать]
mimok

Тепло наших тел / Warm Bodies (2013) BDRip 720p | Open Matte | 60fps«Он всё ещё мёртв, но сердце снова бьётся»- Информация о фильме
Название: Тепло наших тел
Оригинальное название: Warm Bodies
Год выхода: 2013
Жанр: Ужасы, мелодрама, комедия
Режиссер: Джонатан Левин
Продюсер: Дэвид Хоберман, Тодд Либерман, Бруна Папандреа
В ролях: Николас Холт, Тереза Палмер, Анали Типтон, Роб Кордри, Дэйв Франко, Джон Малкович, Кори Хардрикт, Дэниэл Риндресс-Кей, Винсент Леклерк, Клиффорд ЛеДюк-Вайанкур
Описание фильма:
Мир поражен чумой и стоит на грани вымирания. Покойники ходят по земле и норовят употребить в пищу живых, которые, оставшись в катастрофическом меньшинстве, с трудом держат оборону. Перемены начинаются, когда один зомби, чье имя при жизни начиналось на «Р», спасает девушку вместо того, чтобы ее съесть. Дружба, завязавшаяся между представителями враждующих сторон, грозит обоим самыми нехорошими последствиями. Но Р и Джули, сами того не подозревая, держат в руках простой и единственный ключ к спасению гибнущего мира.
Страна: США, Канада
Студия: Summit Entertainment, Mandeville Films
Продолжительность: 01:37:45
Перевод: Дублированный (Лицензия)
Субтитры: Вшитые, отключаемые
Язык субтитров: Русский (Full), Английский (Full)

Дата мировой премьеры:16 января 2013
Дата российской премьеры:31 января 2013, «West»
Дата выхода DVD релиза:24 июня 2014, «West Video»
Дата выхода Blu-Ray релиза:Ноябрь 2014, «West Video»
Файл
Формат: MKV
Кодек: MPEG-4 AVC/H.264
Качество: BDRip 720p
Видео: ~ 11.8 Мбит/сек, 1280 x 720, 59.940 кадров/сек
Аудио: AC3 5.1, 48.0 KHz, 640 Кбит/сек - Русский

MediaInfo

Общее
Уникальный идентификатор : 187655693008909311195791354237540043593 (0x8D2D2BFDB5CC845E9A778EC79E9F0B49)
Полное имя : E:\Торренты\Warm Bodies 60fps.mkv
Формат : Matroska
Версия формата : Version 4 / Version 2
Размер файла : 8,68 Гбайт
Продолжительность : 1 ч. 37 м.
Общий поток : 12,7 Мбит/сек
Название фильма : Warm Bodies (2013) Blu-ray Disc [CZE OPEN MATTE Transfer]
Дата кодирования : UTC 2016-04-19 05:12:40
Программа кодирования : mkvmerge v6.9.1 ('Blue Panther') 64bit built on Apr 18 2014 18:23:38
Библиотека кодирования : libebml v1.3.0 + libmatroska v1.4.1
Видео
Идентификатор : 1
Формат : AVC
Формат/Информация : Advanced Video Codec
Профиль формата : High@L4.1
Параметр CABAC формата : Да
Параметр ReFrames формата : 6 кадров
Идентификатор кодека : V_MPEG4/ISO/AVC
Продолжительность : 1 ч. 37 м.
Битрейт : 11,8 Мбит/сек
Ширина : 1280 пикселей
Высота : 720 пикселей
Соотношение сторон : 16:9
Режим частоты кадров : Постоянный
Частота кадров : 59,940 (59940/1000) кадров/сек
Цветовое пространство : YUV
Субдискретизация насыщенности : 4:2:0
Битовая глубина : 8 бит
Тип развёртки : Прогрессивная
Бит/(Пиксели*Кадры) : 0.214
Размер потока : 8,07 Гбайт (93%)
Заголовок : Release by mimok
Библиотека кодирования : x264 core 130 r2273 b3065e6
Настройки программы : cabac=1 / ref=6 / deblock=1:-1:-1 / analyse=0x3:0x133 / me=umh / subme=8 / psy=1 / psy_rd=1.00:0.15 / mixed_ref=1 / me_range=20 / chroma_me=1 / trellis=2 / 8x8dct=1 / cqm=0 / deadzone=21,11 / fast_pskip=0 / chroma_qp_offset=-3 / threads=6 / lookahead_threads=2 / sliced_threads=0 / nr=0 / decimate=0 / interlaced=0 / bluray_compat=0 / constrained_intra=0 / bframes=8 / b_pyramid=2 / b_adapt=2 / b_bias=0 / direct=1 / weightb=1 / open_gop=0 / weightp=2 / keyint=250 / keyint_min=25 / scenecut=40 / intra_refresh=0 / rc=crf / mbtree=0 / crf=17.0 / qcomp=0.63 / qpmin=10 / qpmax=51 / qpstep=4 / ip_ratio=1.40 / pb_ratio=1.30 / aq=2:1.20
Default : Да
Forced : Нет
Аудио
Идентификатор : 2
Формат : AC-3
Формат/Информация : Audio Coding 3
Расширение режима : CM (complete main)
Параметр Endianness формата : Big
Идентификатор кодека : A_AC3
Продолжительность : 1 ч. 37 м.
Вид битрейта : Постоянный
Битрейт : 640 Кбит/сек
Каналы : 6 каналов
Расположение каналов : Front: L C R, Side: L R, LFE
Частота : 48,0 КГц
Частота кадров : 31,250 кадров/сек (1536 spf)
Метод сжатия : С потерями
Размер потока : 448 Мбайт (5%)
Заголовок : Dub
Язык : Russian
Default : Да
Forced : Нет
Текст #1
Идентификатор : 3
Формат : UTF-8
Идентификатор кодека : S_TEXT/UTF8
Идентификатор кодека/Информация : UTF-8 Plain Text
Заголовок : Full, Notabenoid
Язык : Russian
Default : Да
Forced : Нет
Текст #2
Идентификатор : 4
Формат : UTF-8
Идентификатор кодека : S_TEXT/UTF8
Идентификатор кодека/Информация : UTF-8 Plain Text
Заголовок : Full
Язык : English
Default : Нет
Forced : Нет
Скриншоты:

Релиз подготовлен 60 - fps

[60-fps.org].t2006.torrent
Торрент: Зарегистрирован [ 2016-04-19 17:33 ] · 80A5ADA0420A36B51DB376857C24DF148CC9AC8F

Скачать .torrent

Скачать

44 KB

Статус: проверено
Скачан: 18 раз
Поблагодарили:
Размер: 8,68 GB
 

[Цитировать]
envy

Интересный фильм!!!
понравился саундтрек. - https://www.youtube.com/watch?v=dX3k_QDnzHE
 
Показать сообщения:    

Текущее время: 20-Фев 02:25

Часовой пояс: UTC + 3


Вы не можете начинать темы
Вы не можете отвечать на сообщения
Вы не можете редактировать свои сообщения
Вы не можете удалять свои сообщения
Вы не можете голосовать в опросах
Вы не можете прикреплять файлы к сообщениям
Вы можете скачивать файлы