Темный рыцарь: Возрождение легенды. Часть 1 / Batman: The Dark Knight Returns, Part 1 (2012)

«Old heroes never die. They just get darker»- Информация
Название: Темный рыцарь: Возрождение легенды. Часть 1
Оригинальное название: Batman: The Dark Knight Returns, Part 1
Год выхода: 2012
Жанр: мультфильм, боевик, криминал
Режиссер: Джей Олива
Сценарий: Боб Кейн, Роберт Гудман, John Sikela
Продюсер: Алан Барнетт, Майкл Макасеро, Бенджамин Мельникер
Персонажей озвучивали: Эриель Винтер, Питер Уэллер, Майкл Эмерсон, Майкл МакКин, Уэйд Уильямс, Роб Полсен, Морис ЛаМарш, Гари Энтони Уильямс, Дэвид Селби, Гари Стургис
--Сюжет:

Прошло 10 лет с тех пор как стареющий Бэтмен «ушел в отставку». Готэм в упадке и беззаконии. Теперь, когда городу так нужен его герой, Бэтмен наконец возвращается. В компании Кэрри Келли — девушки-супергероя — Бэтмен решает очистить улицы от банд мутантов, которые наводнили Готэм.
- - Страна: США
Продолжительность: 01:16:22

Файл
Кодек: MPEG4/ISO/AVC H.264
Формат: MKV
Качество: BDRip-AVC | 60 fps
Видео: 1024x576 (16:9) | 59.940 fps | 4.8 Мбит/сек
Аудио 01: AC3 | 2.0 | 48 kHz | 192 kbps | 16 bit | Дубляж |
Аудио 02: AC3 | 5.1 | 48 kHz | 640 kbps | 16 bit | Eng (Отдельно) |
[ Субтитры: русские (Полные), английские (Полные)

MedifInfo

Video
ID : 1
Format : AVC
Format/Info : Advanced Video Codec
Format profile : High@L4.1
Format settings, CABAC : Yes
Format settings, ReFrames : 3 frames
Format settings, GOP : M=3, N=60
Codec ID : V_MPEG4/ISO/AVC
Duration : 1h 16mn
Bit rate mode : Variable
Bit rate : 4 831 Kbps
Maximum bit rate : 5 000 Kbps
Width : 1 024 pixels
Height : 576 pixels
Display aspect ratio : 16:9
Frame rate : 60.000 fps
Standard : NTSC
Color space : YUV
Chroma subsampling : 4:2:0
Bit depth : 8 bits
Scan type : Progressive
Bits/(Pixel*Frame) : 0.137
Stream size : 2.58 GiB (94%)
Language : English
Default : Yes
Forced : No
Color primaries : BT.470-6 System B, BT.470-6 System G, BT.601-6 625, BT.1358 625, BT.1700 625 PAL, BT.1700 625 SECAM
Transfer characteristics : BT.470-6 System B, BT.470-6 System G
Matrix coefficients : BT.470-6 System B, BT.470-6 System G, BT.601-6 625, BT.1358 625, BT.1700 625 PAL, BT.1700 625 SECAM, IEC 61966-2-4 601
Audio
ID : 2
Format : AC-3
Format/Info : Audio Coding 3
Mode extension : CM (complete main)
Codec ID : A_AC3
Duration : 1h 16mn
Bit rate mode : Constant
Bit rate : 192 Kbps
Channel(s) : 2 channels
Channel positions : Front: L R
Sampling rate : 48.0 KHz
Bit depth : 16 bits
Compression mode : Lossy
Stream size : 105 MiB (4%)
Title : Дубляж
Language : Russian
Default : Yes
Forced : No
Text #1
ID : 3
Format : UTF-8
Codec ID : S_TEXT/UTF8
Codec ID/Info : UTF-8 Plain Text
Title : Полные
Language : Russian
Default : No
Forced : No
Text #2
ID : 4
Format : UTF-8
Codec ID : S_TEXT/UTF8
Codec ID/Info : UTF-8 Plain Text
Title : Полные
Language : English
Default : No
Forced : No
Menu
00:00:00.000 : en:00:00:00.000
00:10:16.533 : en:00:10:16.533
00:18:49.295 : en:00:18:49.295
00:29:03.700 : en:00:29:03.700
00:39:39.919 : en:00:39:39.919
00:50:44.208 : en:00:50:44.208
00:59:19.389 : en:00:59:19.389
01:10:53.708 : en:01:10:53.708
01:12:59.792 : en:01:12:59.792

Темный рыцарь: Возрождение легенды. Часть 2 / Batman: The Dark Knight Returns, Part 2 (2013)

«Justice Returns... Vengeance Returns... Redemption Comes to Gotham»- Информация
Название: Темный рыцарь: Возрождение легенды. Часть 2
Оригинальное название: Batman: The Dark Knight Returns, Part 2
Год выхода: 2013
Жанр: мультфильм, боевик, криминал
Режиссер: Джей Олива
Сценарий: Роберт Гудман, Боб Кейн, Джерри Сигел
Продюсер: Алан Барнетт, Бенджамин Мельникер, Сэм Реджистер
Персонажей озвучивали: Питер Уэллер, Эриель Винтер, Дэвид Селби, Пэйджет Брюстер, Майкл Эмерсон, Грэй ДеЛисл, Майкл МакКин, Фрэнк Уэлкер, Ди Брэдли Бейкер, Марк Вэлли
--Сюжет:

Прошло 10 лет с тех пор как стареющий Бэтмен «ушел в отставку». Готэм в упадке и беззаконии. Теперь, когда городу так нужен его герой, Бэтмен наконец возвращается. В компании Кэрри Келли — девушки-супергероя — Бэтмен решает очистить улицы от банд мутантов, которые наводнили Готэм. После того, как Бэтмен дал отпор своим злейшим врагам Джокеру и Двуликому, он вступает в смертельный бой с бывшим союзником — Суперменом. В этой схватке победит только один.
- - Страна: США
Продолжительность: 01:15:49

Файл
Кодек: MPEG4/ISO/AVC H.264
Формат: MKV
Качество: BDRip-AVC | 60 fps
Видео: 1024x576 (16:9) | 59.940 fps | 4.7 Мбит/сек
Аудио 01: AC3 | 2.0 | 48 kHz | 192 kbps | 16 bit | Дубляж |
Аудио 02: AC3 | 5.1 | 48 kHz | 640 kbps | 16 bit | Eng (Отдельно) |
[ Субтитры: русские (Полные), английские (Полные)

MedifInfo

Video
ID : 1
Format : AVC
Format/Info : Advanced Video Codec
Format profile : High@L4.1
Format settings, CABAC : Yes
Format settings, ReFrames : 3 frames
Format settings, GOP : M=3, N=60
Codec ID : V_MPEG4/ISO/AVC
Duration : 1h 15mn
Bit rate mode : Variable
Bit rate : 4 786 Kbps
Maximum bit rate : 5 000 Kbps
Width : 1 024 pixels
Height : 576 pixels
Display aspect ratio : 16:9
Frame rate : 60.000 fps
Standard : NTSC
Color space : YUV
Chroma subsampling : 4:2:0
Bit depth : 8 bits
Scan type : Progressive
Bits/(Pixel*Frame) : 0.135
Stream size : 2.53 GiB (94%)
Language : English
Default : Yes
Forced : No
Color primaries : BT.470-6 System B, BT.470-6 System G, BT.601-6 625, BT.1358 625, BT.1700 625 PAL, BT.1700 625 SECAM
Transfer characteristics : BT.470-6 System B, BT.470-6 System G
Matrix coefficients : BT.470-6 System B, BT.470-6 System G, BT.601-6 625, BT.1358 625, BT.1700 625 PAL, BT.1700 625 SECAM, IEC 61966-2-4 601
Audio
ID : 2
Format : AC-3
Format/Info : Audio Coding 3
Format profile : Dolby Digital
Mode extension : CM (complete main)
Codec ID : A_AC3
Duration : 1h 15mn
Bit rate mode : Constant
Bit rate : 192 Kbps
Channel(s) : 2 channels
Channel positions : Front: L R
Sampling rate : 48.0 KHz
Bit depth : 16 bits
Compression mode : Lossy
Stream size : 104 MiB (4%)
Title : Дубляж
Language : Russian
Default : Yes
Forced : Yes
Text #1
ID : 3
Format : UTF-8
Codec ID : S_TEXT/UTF8
Codec ID/Info : UTF-8 Plain Text
Title : Полные
Language : Russian
Default : No
Forced : No
Text #2
ID : 4
Format : UTF-8
Codec ID : S_TEXT/UTF8
Codec ID/Info : UTF-8 Plain Text
Title : Полные
Language : English
Default : No
Forced : No
Menu
00:00:00.000 : en:00:00:00.000
00:09:48.296 : en:00:09:48.296
00:19:40.763 : en:00:19:40.763
00:31:00.442 : en:00:31:00.442
00:38:56.334 : en:00:38:56.334
00:48:59.145 : en:00:48:59.145
00:59:12.799 : en:00:59:12.799
01:08:50.918 : en:01:08:50.918
01:12:29.554 : en:01:12:29.554
 
Показать сообщения:    

Текущее время: 07-Дек 19:26

Часовой пояс: UTC + 3


Вы не можете начинать темы
Вы не можете отвечать на сообщения
Вы не можете редактировать свои сообщения
Вы не можете удалять свои сообщения
Вы не можете голосовать в опросах
Вы не можете прикреплять файлы к сообщениям
Вы не можете скачивать файлы