Топ Топиков за 24 часа
 
Джон Уик 2 / John Wick: Chapter Two (2017) BDRip 720p | 60 fps Форсаж 8 / The Fate of the Furious (2017) BDRip 1080p | 60 fps Стражи Галактики. Часть 2 / Guardians of the Galaxy Vol. 2 (2017) BDRip 1080p | 60 fps Призрак в доспехах / Ghost in the Shell (2017) BDRip 1080p | 60 fps Великая стена / The Great Wall (2016) BDRip 1080p | 60 fps Форсаж 8 / The Fate of the Furious (2017) BDRip 720p | 60 fps Варкрафт / Warcraft (2016) BDRip 1080p | 60 fps Конг: Остров черепа / Kong: Skull Island (2017) BDRip 1080p | 60 fps Доктор Стрэндж / Doctor Strange (2016) BDRip 1080p | 60 fps Чужой: Завет / Alien: Covenant (2016) BDRip 720p | 60 fps Пираты Карибского моря: Мертвецы не рассказывают сказки / Pirates of the Caribbean: Dead Men Tell No Tales (2017) BDRip 1080p | 60 fps Меч короля Артура / King Arthur: Legend of the Sword (2017) BDRip 1080p | 60 fps
  1. Стаж:
    3 года 2 месяца
    Сообщений:
    2116
    Пол:
    Мужской
     
    «Есть и другие миры, кроме этих» Информация
    Название: Тёмная башня
    Оригинальное название: The Dark Tower
    Год выхода: 2017
    Жанр: Ужасы, фантастика, фэнтези, боевик, приключения, вестерн
    Режиссер: Николай Арсель
    Сценарий: Акива Голдсман, Джефф Пинкнер
    Продюсер: Дж. Мак Браун, Черил Иток
    В ролях: Идрис Эльба, Мэттью МакКонахи, Том Тейлор, Клаудия Ким, Фрэн Кренц, Эбби Ли, Джеки Эрл Хейли, Кэтрин Уинник, Дэннис Хэйсбёрт, Майкл Барбиери

    Сюжет:
    Наш мир — не единственный из существующих. Заклятые враги Роланд Дискейн, последний из ордена стрелков, и Уолтер О’Дим, известный также как Человек в черном, ведут извечную борьбу. На кону — мифическая Темная Башня, последний оплот и надежда вселенной, без которой мир будет повержен в полный хаос и разрушение. Силам добра и зла суждено столкнуться в последней схватке, ведь Роланд Дискейн — единственный, кому под силу остановить Человека в черном, прежде чем тот разрушит Темную Башню.

    Страна: США
    Продолжительность: 01:34:44

    Файл
    Кодек: MPEG4|ISO|AVC|H.264|
    Формат: MKV
    Качество: BDRip 720p | 60 fps
    Видео: 1280 x 534 (2.397) | 59.940 fps | 11.0 Мбит/сек
    Аудио 01: AC3 | 5.1 | 48 kHz | 384 kbps | 16 bit | Дубляж - iTunes |
    Аудио 02: AC3 | 5.1 | 48 kHz | 640 kbps | 16 bit | English |
    Субтитры: Русские (forced, full), английские

    MedifInfo

    Видео
    Идентификатор : 1
    Формат : AVC
    Формат/Информация : Advanced Video Codec
    Профиль формата : High@L4.1
    Параметр CABAC формата : Да
    Параметр ReFrames формата : 3 кадра
    Параметр GOP формата : M=3, N=59
    Идентификатор кодека : V_MPEG4/ISO/AVC
    Продолжительность : 1 ч. 34 м.
    Вид битрейта : Переменный
    Битрейт : 10,6 Мбит/сек
    Максимальный битрейт : 11,0 Мбит/сек
    Ширина : 1280 пикселей
    Высота : 534 пикселя
    Соотношение сторон : 2,40:1
    Режим частоты кадров : Постоянный
    Частота кадров : 59,880 кадров/сек
    Частота кадров в оригинале : 59,940 кадров/сек
    Стандарт вещания : PAL
    Цветовое пространство : YUV
    Субдискретизация насыщенности : 4:2:0
    Битовая глубина : 8 бит
    Тип развёртки : Прогрессивная
    Бит/(Пиксели*Кадры) : 0.258
    Размер потока : 7,00 Гбайт (89%)
    Заголовок : www.60-fps.org
    Язык : English
    Default : Да
    Forced : Нет
    Основные цвета : BT.601 NTSC
    Характеристики трансфера : BT.601
    Коэффициенты матрицы : BT.601
    colour_range : Limited
    Аудио #1
    Идентификатор : 2
    Формат : AC-3
    Формат/Информация : Audio Coding 3
    Расширение режима : CM (complete main)
    Параметр Endianness формата : Big
    Идентификатор кодека : A_AC3
    Продолжительность : 1 ч. 34 м.
    Вид битрейта : Постоянный
    Битрейт : 384 Кбит/сек
    Каналы : 6 каналов
    Расположение каналов : Front: L C R, Side: L R, LFE
    Частота : 48,0 КГц
    Битовая глубина : 16 бит
    Метод сжатия : С потерями
    Размер потока : 260 Мбайт (3%)
    Заголовок : iTunes
    Язык : Russian
    Default : Да
    Forced : Нет
    Аудио #2
    Идентификатор : 3
    Формат : AC-3
    Формат/Информация : Audio Coding 3
    Расширение режима : CM (complete main)
    Параметр Endianness формата : Big
    Идентификатор кодека : A_AC3
    Продолжительность : 1 ч. 34 м.
    Вид битрейта : Постоянный
    Битрейт : 640 Кбит/сек
    Каналы : 6 каналов
    Расположение каналов : Front: L C R, Side: L R, LFE
    Частота : 48,0 КГц
    Битовая глубина : 16 бит
    Метод сжатия : С потерями
    Размер потока : 434 Мбайт (5%)
    Заголовок : Original
    Язык : English
    Default : Нет
    Forced : Нет
    Текст #1
    Идентификатор : 4
    Формат : UTF-8
    Идентификатор кодека : S_TEXT/UTF8
    Идентификатор кодека/Информация : UTF-8 Plain Text
    Заголовок : Forced
    Язык : Russian
    Default : Да
    Forced : Нет
    Текст #2
    Идентификатор : 5
    Формат : UTF-8
    Идентификатор кодека : S_TEXT/UTF8
    Идентификатор кодека/Информация : UTF-8 Plain Text
    Заголовок : Full
    Язык : Russian
    Default : Нет
    Forced : Нет
    Текст #3
    Идентификатор : 6
    Формат : UTF-8
    Идентификатор кодека : S_TEXT/UTF8
    Идентификатор кодека/Информация : UTF-8 Plain Text
    Заголовок : Full
    Язык : English
    Default : Нет
    Forced : Нет
    Текст #4
    Идентификатор : 7
    Формат : UTF-8
    Идентификатор кодека : S_TEXT/UTF8
    Идентификатор кодека/Информация : UTF-8 Plain Text
    Заголовок : SDH
    Язык : English
    Default : Нет
    Forced : Нет
    Меню
    00:00:00.000 : en:00:00:00.000
    00:05:51.643 : en:00:05:51.643
    00:10:36.094 : en:00:10:36.094
    00:16:33.618 : en:00:16:33.618
    00:21:54.897 : en:00:21:54.897
    00:25:35.534 : en:00:25:35.534
    00:31:01.985 : en:00:31:01.985
    00:36:25.183 : en:00:36:25.183
    00:40:49.822 : en:00:40:49.822
    00:46:02.134 : en:00:46:02.134
    00:53:18.404 : en:00:53:18.404
    00:58:42.853 : en:00:58:42.853
    01:03:51.119 : en:01:03:51.119
    01:10:37.650 : en:01:10:37.650
    01:15:53.174 : en:01:15:53.174
    01:21:15.204 : en:01:21:15.204

    Релиз подготовлен 60 - fps

  2. Стаж:
    3 месяца 8 дней
    Сообщений:
    7
    Пол:
    Мужской
     
    1080 будет?
    28-Окт-2017 07:40 (спустя 10 часов)
  3. Стаж:
    3 года 2 месяца
    Сообщений:
    2116
    Пол:
    Мужской
     
    88381080 будет?
    неее
    28-Окт-2017 08:50 (спустя 1 час 9 минут)
  4. Стаж:
    1 год 3 месяца
    Сообщений:
    303
    Пол:
    Мужской
     
    timud1, скорее всего НЕТ,так как если есть вариант,то сперва делается фильм в 1080р.
    Ну или есть вариант: https://60-fps.org/topic-skinut'sya_na_fil'm_ili_na_serial-t=2873.html
    28-Окт-2017 08:51 (спустя 58 секунд)
  5. Стаж:
    1 год 3 месяца
    Сообщений:
    303
    Пол:
    Мужской
     
    Овации ФИЛЬМ КСТАТИ КАЙФОВЫЙ,на удивление качество видео и звука ваще крутое,если не щнать,то даже не понятно,что не 1080,видео-поток тоже кайфовый,звук - денамичный,эффекты чётко слышно... , ВООБЩЕМ мой вердикт: 5+++ Да
    28-Окт-2017 12:57 (спустя 4 часа)
  6. Стаж:
    1 год 7 месяцев
    Сообщений:
    2
    Пол:
    Не указан
     
    1080 пи-пи!!!!!!!)))))dts hd master audio 7.1
    04-Дек-2017 19:34 (спустя 1 месяц 7 дней)
  7. Стаж:
    1 год 3 месяца
    Сообщений:
    303
    Пол:
    Мужской
     
    Димоныч, ты о чём... ?
    04-Дек-2017 19:44 (спустя 9 минут)
  8. Стаж:
    1 год 7 месяцев
    Сообщений:
    2
    Пол:
    Не указан
     
    о фильме каЭш!))максимум хотелось бы!
    04-Дек-2017 20:01 (спустя 17 минут)
  9. Стаж:
    4 месяца 19 дней
    Сообщений:
    7
    Пол:
    Мужской
     
    Отличное качество :) Спасибо за фильмец :) Агонь
    06-Дек-2017 12:03 (спустя 1 день 16 часов)


Вы не можете начинать темы
Вы не можете отвечать на сообщения
Вы не можете редактировать свои сообщения
Вы не можете удалять свои сообщения
Вы не можете голосовать в опросах
Вы не можете прикреплять файлы к сообщениям
Вы не можете скачивать файлы