-Название: Телохранитель
Оригинальное название: The Bodyguard
Год выпуска: 1992
Страна: США
Жанр: боевик, триллер, драма, мелодрама, музыка
Продолжительность: 02:09:20
Перевод: Дубляж
Субтитры:русские (Полные), английские (Полные)-Режиссер: Мик Джексон / Mick Jackson-В ролях: Кевин Костнер (Frank Farmer), Уитни Хьюстон (Rachel Marron), Гари Кемп (Sy Spector), Билл Коббс (Devaney), Ральф Уэйт (Herb Farmer), Томас Арана (Portman), Мишель Ламар Ричардс (Nicki), Майк Старр (Tony), Кристофер Бирт (Henry), Девон Никсон (Fletcher), Джерри Бэммен (Ray Court), Джо Урла (Minella)-Описание:
Фрэнк Фармер, сотрудник службы безопасности президента Рейгана, чувствует себя отчасти виновным в том, что в его отсутствие на президента было совершено покушение. Он покидает службу и за большой гонорар, но все же нехотя, нанимается телохранителем чернокожей певицы и актрисы Рэйчел Мэррон, которая постоянно получает письма с угрозами.
Первоначальная антипатия, возникшая между ними, постепенно перерастает в любовь. Сложившаяся ситуация мешает телохранителю исполнять свой профессиональный долг, что приводит к частым конфликтам между Фрэнком и Рэйчел... Фармер приходит к выводу, что угроза жизни Рэйчел исходит отнюдь не от психопата, а от профессионального убийцы.-Рейтинг
kinopoisk.ru: 7.979 (37 813)
imdb.com: 6.00 (73 119)
MPAA: R - Лицам до 17 лет обязательно присутствие взрослого-Качество: BDRip 1080p / 60 FPS
Формат: MKV
Битрейт видео: ~17400 kb/s
Размер кадра: 1920*1080
Аудио 1 Русский: AC3 5.1, 640 kb/s
Аудио 2 Английский: AC3 5.1, 640 kb/s
Навигация по главам: есть-

MI

Общее
Уникальный идентификатор : 247275326158041458935946259476533073242 (0xBA077EDA1C1270FFBD0E2C451D95D55A)
Полное имя : F:Телохранитель 1080p 60fps.mkv
Формат : Matroska
Версия формата : Version 4 / Version 2
Размер файла : 17,2 Гбайт
Продолжительность : 2 ч. 9 м.
Общий поток : 19,0 Мбит/сек
Название фильма : Avatar.2009.Extended.Collectors.Cut.1080p.Blu-ray.AVC
Дата кодирования : UTC 2014-07-11 17:30:04
Программа кодирования : mkvmerge v6.9.1 ('Blue Panther') 64bit built on Apr 18 2014 18:23:38
Библиотека кодирования : libebml v1.3.0 + libmatroska v1.4.1
Видео
Идентификатор : 1
Формат : AVC
Формат/Информация : Advanced Video Codec
Профиль формата : High@L4.1
Параметр CABAC формата : Да
Параметр ReFrames формата : 4 кадра
Идентификатор кодека : V_MPEG4/ISO/AVC
Продолжительность : 2 ч. 9 м.
Битрейт : 17,4 Мбит/сек
Ширина : 1920 пикселей
Высота : 1080 пикселей
Соотношение сторон : 16:9
Режим частоты кадров : Постоянный
Частота кадров : 59,880 кадров/сек
Частота кадров в оригинале : 59,940 кадров/сек
Цветовое пространство : YUV
Субдискретизация насыщенности : 4:2:0
Битовая глубина : 8 бит
Тип развёртки : Прогрессивная
Бит/(Пиксели*Кадры) : 0.140
Размер потока : 15,7 Гбайт (91%)
Библиотека кодирования : x264 core 130 r2273 b3065e6
Настройки программы : cabac=1 / ref=4 / deblock=1:-1:-1 / analyse=0x3:0 / me=umh / subme=9 / psy=1 / psy_rd=1.00:0.10 / mixed_ref=1 / me_range=24 / chroma_me=0 / trellis=1 / 8x8dct=1 / cqm=0 / deadzone=21,11 / fast_pskip=0 / chroma_qp_offset=-3 / threads=12 / lookahead_threads=1 / sliced_threads=0 / nr=0 / decimate=0 / interlaced=0 / bluray_compat=0 / constrained_intra=0 / bframes=5 / b_pyramid=2 / b_adapt=2 / b_bias=0 / direct=1 / weightb=1 / open_gop=0 / weightp=2 / keyint=599 / keyint_min=59 / scenecut=40 / intra_refresh=0 / rc=crf / mbtree=0 / crf=17.0 / qcomp=0.60 / qpmin=0 / qpmax=69 / qpstep=4 / ip_ratio=1.40 / pb_ratio=1.30 / aq=1:0.90
Язык : English
Default : Да
Forced : Нет
Аудио #1
Идентификатор : 2
Формат : AC-3
Формат/Информация : Audio Coding 3
Расширение режима : CM (complete main)
Параметр Endianness формата : Big
Идентификатор кодека : A_AC3
Продолжительность : 2 ч. 9 м.
Вид битрейта : Постоянный
Битрейт : 640 Кбит/сек
Каналы : 6 каналов
Расположение каналов : Front: L C R, Side: L R, LFE
Частота : 48,0 КГц
Битовая глубина : 16 бит
Метод сжатия : С потерями
Размер потока : 592 Мбайт (3%)
Заголовок : Dub
Язык : Russian
Default : Да
Forced : Нет
Аудио #2
Идентификатор : 3
Формат : AC-3
Формат/Информация : Audio Coding 3
Расширение режима : CM (complete main)
Параметр Endianness формата : Big
Идентификатор кодека : A_AC3
Продолжительность : 2 ч. 9 м.
Вид битрейта : Постоянный
Битрейт : 640 Кбит/сек
Каналы : 6 каналов
Расположение каналов : Front: L C R, Side: L R, LFE
Частота : 48,0 КГц
Битовая глубина : 16 бит
Метод сжатия : С потерями
Размер потока : 592 Мбайт (3%)
Заголовок : Original
Язык : English
Default : Нет
Forced : Нет
Текст #1
Идентификатор : 4
Формат : UTF-8
Идентификатор кодека : S_TEXT/UTF8
Идентификатор кодека/Информация : UTF-8 Plain Text
Заголовок : Full
Язык : Russian
Default : Нет
Forced : Нет
Текст #2
Идентификатор : 5
Формат : UTF-8
Идентификатор кодека : S_TEXT/UTF8
Идентификатор кодека/Информация : UTF-8 Plain Text
Заголовок : Full
Язык : English
Default : Нет
Forced : Нет
Меню
00:00:00.000 : en:On and off the job (Credits)
00:03:48.562 : en:Recruiting the best.
00:05:22.364 : en:My disguise; meeting the client
00:12:46.307 : en:Fan letter ("I Have Nothing")
00:17:19.247 : en:The person who always gets hit
00:19:35.132 : en:Precautions; the ego wall.
00:23:45.424 : en:Under surveillance.
00:26:13.697 : en:Strained relations.
00:30:11.476 : en:Run to You.
00:31:23.507 : en:A night out.
00:35:30.754 : en:Rachel's time ("Queen of the Night").
00:38:39.776 : en:Pandemonium.
00:42:08.067 : en:Playing with knives.
00:44:09.272 : en:Getting fixed up.
00:46:35.668 : en:A fan's trophies.
00:47:39.148 : en:Farmer's kind of date (Yojimbo clip).
00:51:51.692 : en:"I Will Always Love You" (John Doe); "I'll protect you."
00:54:09.121 : en:Sword's point; "I can't protect you like this."
01:01:46.077 : en:On the job in Miami (I Have Nothing).
01:04:40.418 : en:The party; an ex-colleague.
01:11:01.966 : en:Insecure
01:14:17.912 : en:"I'm afraid."
01:17:41.115 : en:Country retreat; the Reagan thing.
01:20:55.017 : en:Dinner; next moves ("You didn't say no to the boss").
01:26:19.758 : en:Jesus Love Me; a saboteur doesn't.
01:30:13.033 : en:Confession in the dark.
01:34:01.010 : en:Shots in the dark.
01:36:18.898 : en:An arrest is made.
01:37:12.118 : en:Sorrow; "I'm afraid of not being there."
01:40:27.355 : en:"I have you to protect me."
01:43:40.464 : en:Arrival at the Oscars.
01:47:27.858 : en:Backstage reunion.
01:48:43.809 : en:"This is the night" ("I Have Nothing").
01:53:37.352 : en:"I know who it is."
01:56:02.956 : en:The winner takes the stage.
01:59:26.159 : en:Under control.
02:00:54.581 : en:"I Will Always Love You"
02:03:34.407 : en:Guiding and protecting; End Credits (Queen of the Night).

Скриншоты

 
Показать сообщения:    

Текущее время: 07-Дек 19:20

Часовой пояс: UTC + 3


Вы не можете начинать темы
Вы не можете отвечать на сообщения
Вы не можете редактировать свои сообщения
Вы не можете удалять свои сообщения
Вы не можете голосовать в опросах
Вы не можете прикреплять файлы к сообщениям
Вы не можете скачивать файлы