Гадкий я 3 / Despicable Me 3 (2017) BDRip 720p | 60 fps Гадкий я 3 / Despicable Me 3 (2017) BDRip 1080p | 60 fps Моана / Moana (2016) BDRip 720p | 60 fps Босс-молокосос / The Boss Baby (2017) BDRip 1080p | 60 fps Босс-молокосос / The Boss Baby (2017) BDRip 720p | 60 fps Тачки 3 / Cars 3 (2017) BDRip 1080p | 60 fps Зверопой / Sing (2016) BDRip 1080p | 60 fps Зверополис / Zootopia (2016) BDRip 1080p | 60 fps Тролли / Trolls (2016) BDRip 720p | 60 fps В поисках Дори / Finding Dory (2016) BDRip 720p | 60 fps Тайная жизнь домашних животных / The Secret Life of Pets (2016) BDRip 1080p | 60 fps Тачки 3 / Cars 3 (2017) BDRip 720p | 60 fps
  1. bot

    Стаж:
    3 года 3 месяца
    Сообщений:
    412
    Пол:
    Не указан
    «Думаете, они ждут вас у порога весь день?»- Информация
    Название: Тайная жизнь домашних животных
    Оригинальное название: The Secret Life of Pets
    Год выхода: 2016
    Жанр: Мультфильм, комедия, семейный, полнометражный
    Режиссер: Ярроу Чейни, Крис Рено
    Сценарий: Синко Пол, Кен Даурио, Брайан Линч
    Продюсер: Джанет Хили, Бретт Хоффман, Кристофер Меледандри
    Персонажей озвучивали: Луис С.К., Эрик Стоунстрит, Кевин Харт, Дженни Слейт, Элли Кемпер, Альберт Брукс, Лэйк Белл, Дэна Карви, Хэннибал Бёресс, Бобби Мойнахан
    --Сюжет:
    Что делают домашние животные пока хозяева пропадают на работе? С тоской смотрят в окно? Смиренно дремлют на коврике у двери? Как бы не так. Они ведут свою тайную жизнь.- Страна: Япония, США
    Продолжительность: 01:26:36

    Файл
    Кодек: MPEG4/ISO/AVC/H.264
    Формат: MKV
    Качество: BDRip 1080p | 60 fps
    Видео: 1920х1040 | 59.940 fps | 10.0 Мбит/сек
    Аудио: AC3 | 5.1 | 48 kHz | 384 kbps | 16 bit | Дубляж - iTunes |

    MedifInfo

    Video
    ID : 1
    Format : AVC
    Format/Info : Advanced Video Codec
    Format profile : High@L4.2
    Format settings, CABAC : Yes
    Format settings, ReFrames : 4 frames
    Codec ID : V_MPEG4/ISO/AVC
    Duration : 1 h 26 min
    Bit rate : 10 000 kb/s
    Width : 1 920 pixels
    Height : 1 040 pixels
    Display aspect ratio : 1.85:1
    Frame rate mode : Constant
    Frame rate : 59.940 (59940/1000) FPS
    Color space : YUV
    Chroma subsampling : 4:2:0
    Bit depth : 8 bits
    Scan type : Progressive
    Bits/(Pixel*Frame) : 0.084
    Stream size : 6.04 GiB (96%)
    Title : GTP The.Secret.Life.of.Pets.2016.BDRip.GTP.1080p.60FPS
    Writing library : x264 core 146 r2538 121396c
    Encoding settings : cabac=1 / ref=4 / deblock=1:0:0 / analyse=0x3:0x113 / me=umh / subme=11 / psy=1 / psy_rd=1.00:0.10 / mixed_ref=1 / me_range=32 / chroma_me=1 / trellis=2 / 8x8dct=1 / cqm=0 / deadzone=21,11 / fast_pskip=0 / chroma_qp_offset=-3 / threads=12 / lookahead_threads=1 / sliced_threads=0 / nr=0 / decimate=1 / interlaced=0 / bluray_compat=0 / constrained_intra=0 / bframes=5 / b_pyramid=2 / b_adapt=2 / b_bias=0 / direct=3 / weightb=1 / open_gop=0 / weightp=2 / keyint=600 / keyint_min=59 / scenecut=40 / intra_refresh=0 / rc_lookahead=40 / rc=2pass / mbtree=0 / bitrate=10000 / ratetol=1.0 / qcomp=0.60 / qpmin=0 / qpmax=69 / qpstep=4 / cplxblur=20.0 / qblur=0.5 / vbv_maxrate=14000 / vbv_bufsize=14000 / nal_hrd=none / filler=0 / ip_ratio=1.40 / pb_ratio=1.30 / aq=1:1.00
    Language : English
    Default : Yes
    Forced : No
    Audio
    ID : 2
    Format : AC-3
    Format/Info : Audio Coding 3
    Mode extension : CM (complete main)
    Format settings, Endianness : Big
    Codec ID : A_AC3
    Duration : 1 h 26 min
    Bit rate mode : Constant
    Bit rate : 384 kb/s
    Channel(s) : 2 channels
    Channel positions : Front: L R
    Sampling rate : 48.0 kHz
    Frame rate : 31.250 FPS (1536 spf)
    Bit depth : 16 bits
    Compression mode : Lossy
    Delay relative to video : 8 s 635 ms
    Stream size : 237 MiB (4%)
    Title : Line
    Language : Russian
    Default : Yes
    Forced : No
    Menu
    00:00:00.000 : en:00:00:00.000
    00:05:05.847 : en:00:05:05.847
    00:09:24.063 : en:00:09:24.063
    00:13:18.840 : en:00:13:18.840
    00:18:03.666 : en:00:18:03.666
    00:22:14.458 : en:00:22:14.458
    00:28:51.855 : en:00:28:51.855
    00:32:54.848 : en:00:32:54.848
    00:36:55.839 : en:00:36:55.839
    00:42:27.295 : en:00:42:27.295
    00:44:46.767 : en:00:44:46.767
    00:50:21.227 : en:00:50:21.227
    00:54:45.407 : en:00:54:45.407
    00:59:33.987 : en:00:59:33.987
    01:02:36.544 : en:01:02:36.544
    01:07:12.362 : en:01:07:12.362
    01:13:06.841 : en:01:13:06.841
    01:16:04.602 : en:01:16:04.602
    01:18:48.057 : en:01:18:48.057
    01:19:58.836 : en:01:19:58.836
  2. Стаж:
    3 года 2 месяца
    Сообщений:
    32
    Пол:
    Мужской
     
    Привет Может быть дорогу заменит кто-будь лицензия вышла
  3. Стаж:
    3 года 3 месяца
    Сообщений:
    2174
    Пол:
    Мужской
     
    7041Привет Может быть дорогу заменит кто-будь лицензия вышла
    Это поделка не нашей группы .
    11-Дек-2016 07:12 (спустя 1 час 50 минут)


Вы не можете начинать темы
Вы не можете отвечать на сообщения
Вы не можете редактировать свои сообщения
Вы не можете удалять свои сообщения
Вы не можете голосовать в опросах
Вы не можете прикреплять файлы к сообщениям
Вы не можете скачивать файлы