Тайна Коко / Coco (2017) BDRip 1080p | 60 fps Фердинанд / Ferdinand (2017) BDRip 720p | 60 fps Зверополис / Zootopia (2016) BDRip 1080p | 60 fps Тачки 3 / Cars 3 (2017) BDRip 720p | 60 fps Тачки 3 / Cars 3 (2017) BDRip 1080p | 60 fps Три богатыря и принцесса Египта (2017) BDRip 720p | 60 fps Гадкий я 3 / Despicable Me 3 (2017) BDRip 720p | 60 fps Кролик Питер / Peter Rabbit (2018) BDRip 720p | 60 fps
  1. Стаж:
    2 года 1 месяц
    Сообщений:
    620
    Пол:
    Мужской
    Фильм «The celebration of a lifetime» Фильм- Информация
    Название: Тайна Коко
    Оригинальное название: Coco
    Год выхода: 2017
    Жанр: мультфильм, фэнтези, комедия, детектив, приключения, семейный, музыка
    Режиссер: Ли Анкрич, Эдриан Молина
    Сценарий: Мэттью Олдрич, Эдриан Молина, Ли Анкрич
    Продюсер: Дарла К. Андерсон, Мэри Элис Драмм, Джон Лассетер
    В ролях: Энтони Гонсалес,Гаэль Гарсиа Берналь,Бенджамин Брэтт,Аланна Юбак,Рене Виктор,Хайме Камиль,Альфонсо Арау,Херберт Сигенса,Габриэль Иглесиас,Ломбардо Бойяр
    --Сюжет:
    12-летний Мигель живёт в мексиканской деревушке в семье сапожников и тайно мечтает стать музыкантом. Тайно — потому что в его семейном клане музыка считается проклятием. Когда-то его прапрадед оставил свою жену, прапрабабку Мигеля, ради мечты, которая теперь не даёт спокойно жить Мигелю. С тех пор музыкальная тема в семье стала табу. Мигель обнаруживает, что между ним и его любимым певцом Эрнесто де ла Крусом, ныне покойным, существует некая — пока неназванная — связь. Паренёк отправляется к своему кумиру в Страну Мёртвых, где встречает души своих предков. Мигель знакомится там с духом-трикстером по имени Гектор (в облике скелета), который становится его проводником. Вдвоём они отправляются на поиски де ла Круса.-- Страна: США
    Продолжительность: 01:45:02

    Файл
    Кодек: MPEG4/ISO/AVC H.264/High@L4.1
    Формат: MKV
    Качество: BDRip 1080p | 60 fps
    Видео: 1920 x 800 (2.400) | 59.940 fps | 15,0 Мбит/сек
    Аудио 1: AC-3| 5.1 | 48 kHz | 384 Кбит/сек | 16 bit | Дудляж (iTunes)
    Аудио 2: DTS-HD MA| 7.1 | 48 kHz | 1509 Кбит/сек| 24 bit | Орегинал
    Субтитры:

    MedifInfo

    Видео
    Идентификатор : 1
    Формат : AVC
    Формат/Информация : Advanced Video Codec
    Профиль формата : High@L4.1
    Параметр CABAC формата : Да
    Параметр ReFrames формата : 4 кадра
    Идентификатор кодека : V_MPEG4/ISO/AVC
    Продолжительность : 1 ч. 45 м.
    Битрейт : 15,0 Мбит/сек
    Ширина : 1920 пикселей
    Высота : 800 пикселей
    Соотношение сторон : 2,40:1
    Режим частоты кадров : Постоянный
    Частота кадров : 59,940 (60000/1001) кадров/сек
    Цветовое пространство : YUV
    Субдискретизация насыщенности : 4:2:0
    Битовая глубина : 8 бит
    Тип развёртки : Прогрессивная
    Бит/(Пиксели*Кадры) : 0.163
    Размер потока : 10,8 Гбайт (98%)
    Заголовок : Талямба: 60-fps.org
    Библиотека кодирования : x264 core 146 r2538 121396c
    Настройки программы : cabac=1 / ref=3 / deblock=1:-3:-3 / analyse=0x3:0x113 / me=hex / subme=7 / psy=1 / psy_rd=1.00:0.25 / mixed_ref=1 / me_range=16 / chroma_me=1 / trellis=1 / 8x8dct=1 / cqm=0 / deadzone=6,6 / fast_pskip=1 / chroma_qp_offset=-4 / threads=12 / lookahead_threads=2 / sliced_threads=0 / nr=0 / decimate=0 / interlaced=0 / bluray_compat=0 / constrained_intra=0 / bframes=3 / b_pyramid=2 / b_adapt=1 / b_bias=0 / direct=1 / weightb=1 / open_gop=0 / weightp=2 / keyint=599 / keyint_min=59 / scenecut=40 / intra_refresh=0 / rc_lookahead=40 / rc=2pass / mbtree=1 / bitrate=15000 / ratetol=1.0 / qcomp=0.80 / qpmin=0 / qpmax=69 / qpstep=4 / cplxblur=20.0 / qblur=0.5 / vbv_maxrate=50000 / vbv_bufsize=50000 / nal_hrd=none / filler=0 / ip_ratio=1.10 / aq=1:0.50
    Язык : English
    Default : Да
    Forced : Нет
    Аудио #1
    Идентификатор : 2
    Формат : AC-3
    Формат/Информация : Audio Coding 3
    Расширение режима : CM (complete main)
    Параметр Endianness формата : Big
    Идентификатор кодека : A_AC3
    Продолжительность : 1 ч. 51 м.
    Вид битрейта : Постоянный
    Битрейт : 384 Кбит/сек
    Каналы : 6 каналов
    Расположение каналов : Front: L C R, Side: L R, LFE
    Частота : 48,0 КГц
    Частота кадров : 31,250 кадров/сек (1536 spf)
    Битовая глубина : 16 бит
    Метод сжатия : С потерями
    Размер потока : 511 Мбайт (4%)
    Заголовок : Оригинал
    Язык : Russian
    Default : Да
    Forced : Нет
    Аудио #2
    Идентификатор : 3
    Формат : DTS
    Формат/Информация : Digital Theater Systems
    Профиль формата : MA / Core
    Режим : 16
    Параметр Endianness формата : Big
    Идентификатор кодека : A_DTS
    Продолжительность : 1 ч. 51 м.
    Вид битрейта : Постоянный
    Битрейт : 1509 Кбит/сек
    Каналы : 8 каналов
    Расположение каналов : Front: L C R, Side: L R, Back: L R, LFE
    Частота : 48,0 КГц
    Частота кадров : 93,750 кадра/сек (512 spf)
    Битовая глубина : 24 бит
    Метод сжатия : С потерями
    Размер потока : 1,18 Гбайт (9%)
    Заголовок : Оригинал
    Язык : Russian
    Default : Нет
    Forced : Нет
    Текст #1
    Идентификатор : 4
    Формат : UTF-8
    Идентификатор кодека : S_TEXT/UTF8
    Идентификатор кодека/Информация : UTF-8 Plain Text
    Продолжительность : 1 ч. 27 м.
    Битрейт : 71 бит/сек
    Count of elements : 1005
    Размер потока : 46,2 Кбайт (0%)
    Язык : Russian
    Default : Нет
    Forced : Нет
    Текст #2
    Идентификатор : 5
    Формат : UTF-8
    Идентификатор кодека : S_TEXT/UTF8
    Идентификатор кодека/Информация : UTF-8 Plain Text
    Продолжительность : 1 ч. 33 м.
    Битрейт : 45 бит/сек
    Count of elements : 1113
    Размер потока : 31,1 Кбайт (0%)
    Язык : English
    Default : Нет
    Forced : Нет
    Текст #3
    Идентификатор : 6
    Формат : UTF-8
    Идентификатор кодека : S_TEXT/UTF8
    Идентификатор кодека/Информация : UTF-8 Plain Text
    Продолжительность : 1 ч. 33 м.
    Битрейт : 49 бит/сек
    Count of elements : 1199
    Размер потока : 33,7 Кбайт (0%)
    Заголовок : SDH
    Язык : English
    Default : Нет
    Forced : Нет
    Меню
    00:00:00.000 : en:Chapter 1
    00:10:49.583 : en:Chapter 2
    00:22:23.625 : en:Chapter 3
    00:28:42.083 : en:Chapter 4
    00:35:50.083 : en:Chapter 5
    00:47:02.333 : en:Chapter 6
    00:55:14.625 : en:Chapter 7
    01:05:19.083 : en:Chapter 8
    01:15:50.541 : en:Chapter 9
    01:23:27.125 : en:Chapter 10
    01:32:09.458 : en:Chapter 11
    01:43:26.458 : en:Chapter 12
    01:51:31.375 : en:Chapter 13
  2. Стаж:
    2 года 1 месяц
    Сообщений:
    620
    Пол:
    Мужской
    Кайфовый мульт... !
    19-Апр-2018 13:53 (спустя 1 день 10 часов)
  3. bot

    Стаж:
    4 года
    Сообщений:
    418
    Пол:
    Не указан
    Топик был перенесен из форума Новинки Кино 60 FPS в форум Мультфильмы 60 FPS
    Kryl
    18-Май-2018 08:55 (спустя 28 дней)


Вы не можете начинать темы
Вы не можете отвечать на сообщения
Вы не можете редактировать свои сообщения
Вы не можете удалять свои сообщения
Вы не можете голосовать в опросах
Вы не можете прикреплять файлы к сообщениям
Вы не можете скачивать файлы