Rammstein (БЕЗ ЦЕНЗУРЫ)| WEBRip 1080p | 60 fps Britney Spears - Oops! I Did It Again Uncut (2009) HD 1080p | 60 fps BLACKPINK | WEBRip 1080p | 60 fps Jennifer Lopez ft. Iggy Azalea - Booty (2014) Full HD 1080p | 60 fps Britney Spears - Toxic (2004) HDTVRip 1080p | 60 fps Lady Gaga - Poker Face (2009) Full HD 1080p | 60 fps Britney Spears - Criminal (2011) BDRip 1080p | 60 fps Britney Spears - ...Baby One More Time (2009) Full HD 1080p | 60 fps
  1. Longevity:
    5 years 9 months
    Posts:
    283
    Gender:
    Male
    Taylor Swift ft. Kendrick Lamar - Bad Blood (2015) Full HD 1080p | 60 fps

    Информация о Клипе:
    Исполнители: Taylor Swift ft. Kendrick Lamar
    Название: Bad Blood
    Год выпуска: 2015 г.
    Жанр: Pop
    Продолжительность: 00:04:05

    Файл:
    Формат видео: MKV
    Качество видео: Full HD 1080p | 60 fps
    Видео кодек: H.264
    Аудио кодек: AC3
    Видео: 1920x816 | 60,000 fps | 29,7 Мбит/сек
    Аудио: AC3 | 2 channels | 48 kHz | 448 Кбит/сек

    Автор Рипа:

    MediaInfo

    Видео
    Идентификатор : 1
    Формат : AVC
    Формат/Информация : Advanced Video Codec
    Профиль формата : High@L4.1
    Параметр CABAC формата : Да
    Параметр ReFrames формата : 4 кадра
    Идентификатор кодека : V_MPEG4/ISO/AVC
    Продолжительность : 4 м. 5 с.
    Битрейт : 29,7 Мбит/сек
    Номинальный битрейт : 31,6 Мбит/сек
    Ширина : 1920 пикселей
    Высота : 816 пикселей
    Соотношение сторон : 2,35:1
    Режим частоты кадров : Постоянный
    Частота кадров : 60,000 кадров/сек
    Цветовое пространство : YUV
    Субдискретизация насыщенности : 4:2:0
    Битовая глубина : 8 бит
    Тип развёртки : Прогрессивная
    Бит/(Пиксели*Кадры) : 0.316
    Размер потока : 870 Мбайт (97%)
    Заголовок : Taylor Swift feat. Kendrick Lamar - Bad Blood « R.G 60-FPS Rip By Kamikkadze »
    Библиотека кодирования : x264 core 146 r2538 121396c
    Настройки программы : cabac=1 / ref=4 / deblock=1:-1:1 / analyse=0x3:0x133 / me=umh / subme=7 / psy=1 / psy_rd=1.00:0.15 / mixed_ref=1 / me_range=16 / chroma_me=1 / trellis=2 / 8x8dct=1 / cqm=0 / deadzone=21,11 / fast_pskip=1 / chroma_qp_offset=-3 / threads=6 / lookahead_threads=1 / sliced_threads=0 / nr=0 / decimate=1 / interlaced=0 / bluray_compat=0 / constrained_intra=0 / bframes=4 / b_pyramid=2 / b_adapt=2 / b_bias=0 / direct=1 / weightb=0 / open_gop=0 / weightp=2 / keyint=250 / keyint_min=25 / scenecut=40 / intra_refresh=0 / rc=abr / mbtree=0 / bitrate=31570 / ratetol=1.0 / qcomp=0.60 / qpmin=0 / qpmax=69 / qpstep=4 / ip_ratio=1.40 / pb_ratio=1.30 / aq=1:1.00
    Default : Да
    Forced : Нет
    Аудио
    Идентификатор : 2
    Формат : AC-3
    Формат/Информация : Audio Coding 3
    Расширение режима : CM (complete main)
    Параметр Endianness формата : Big
    Идентификатор кодека : A_AC3
    Продолжительность : 4 м. 5 с.
    Вид битрейта : Постоянный
    Битрейт : 448 Кбит/сек
    Каналы : 2 канала
    Расположение каналов : Front: L R
    Частота : 48,0 КГц
    Метод сжатия : С потерями
    Размер потока : 13,1 Мбайт (1%)
    Default : Да
    Forced : Нет
    Просьба к переливающим на другие сайты, в оформлении указывайте пожалуйста авторство рипа - Kamikkadze

    Release was prepared by 60 - fps

  2. Longevity:
    6 years
    Posts:
    2419
    Gender:
    Male
    :aa:
    Что то ты сегодня раздухарился :ag: :ag:
    04-Oct-2015 22:45 (after 3 minutes)
  3. Longevity:
    5 years 9 months
    Posts:
    283
    Gender:
    Male
    3865:aa:
    Что то ты сегодня раздухарился :ag: :ag:
    Привет,да появилась свободная минутка решил сразу залить то что было))) так-то материала много, а времени сам знаешь не очень)))
    04-Oct-2015 22:47 (after 2 minutes)
  4. Longevity:
    6 years
    Posts:
    2419
    Gender:
    Male
    А тут материала нет ))) Да и времени пока тоже нет )
    04-Oct-2015 22:48 (after 51 second)
  5. Longevity:
    5 years 9 months
    Posts:
    283
    Gender:
    Male
    3867А тут материала нет ))) Да и времени пока тоже нет )
    ну будем продвигать проект))))
    04-Oct-2015 22:54 (after 6 minutes)
  6. Longevity:
    4 years 11 months
    Posts:
    1
    Gender:
    Unknown
    Возможно это только у меня ,но в начале клипа лаг...На других порядочек)
    20-Nov-2015 18:40 (after 1 month 15 days)


You cannot post new topics in this forum
You cannot reply to topics in this forum
You cannot edit your posts in this forum
You cannot delete your posts in this forum
You cannot vote in polls in this forum
You cannot attach files in this forum
You cannot download files in this forum