Lady Gaga - Bad Romance (2009) Master | ProRes Lady Gaga - Poker Face (2009) Master | ProRes Jennifer Lopez - Waiting For Tonight (1999) 540p | Master | ProRes Lady Gaga - Paparazzi (2009) Master | ProRes Britney Spears - Hold It Against Me (2011) Master | ProRes Rihanna feat. Drake - Work (2016) Master | ProRes Lady Gaga - Born This Way (2011) Master | ProRes Rihanna - Shut Up And Drive (2007) Master | ProRes
  1. Longevity:
    5 years 2 months
    Posts:
    2418
    Gender:
    Male
    -Taylor Swift - Style (2015) Master | ProRes --Информация о Клипе
    Исполнитель: Taylor Swift
    Название: Style
    Год выхода: 2015
    Продолжительность: 00:03:59-Описание:
    «Style» — песня, записанная американской певицей Тейлор Свифт, и выпущенная как третий сингл из её пятого студийного альбома 1989, вышедшего в 2014 году. Поп-рок песня была написана Свифт, Макс Мартином, Шеллбэком и Ali Payami.
    Тейлор Свифт рассказала, что на песню её вдохновил телеведущий Райан Сикрест во время интервью на iHeartRadio/KIIS FM в октябре 2014. В январе 2015 года лейбл Republic Records официально анонсировал «Style» в качестве третьего сингла Свифт с диска 1989, обозначив дату релиза на 9 февраля 2015 года. Издание Pitchfork Media назвало «Style» 50-й лучшей песнью 2014 года. Даниэль Крепс (обозреватель журнала Rolling Stone) высказал мнение, что в отличие от «Shake It Off» или «Blank Space» (предыдущих синглах с того же альбома), «Style» являет собой совершенно другую вещь, демонстрируя Свифт в темном, более абстрактном свете".
    Сингл дебютировал в Billboard Hot 100 на 60-м месте, вслед за хорошими продажами альбома 1989, хотя неделю спустя спустился в чарте. Однако, после живого выступления на шоу 2014 Victoria’s Secret Fashion Show в декабре 2014 года, сингл снова вошёл в хит-парад под № 75 в неделю, оканчивающуюся на 18 декабря, с тиражом 48,000 копий. 13 февраля 2015 года песня достигла № 18 в Hot 100, а также 9-го места в чарте Radio Songs и 7-го места в Digital Songs top-10 (92,000 загрузок). «Style» стал для Свифт её 17-м хитом в top 10 (Hot 100), что позволило ей поделить с Аретой Франклин 6-е место среди певиц по наибольшему числу синглов, вошедших в десятку лучших в США за всю 56-летнюю историю. Среди лидеров по этому показателю Мадонна (38 синглов в top 10), Mariah Carey (27), Janet Jackson (27), Rihanna (26) и Whitney Houston (23).
    Музыкальное видео снял американский режиссёр и продюсер Кайл Ньюман.
    -Файл
    Кодек: APCH
    Контейнер: MOV
    Формат: ProRes
    Качество: Master
    Видео: 1920 x 1080 (1.778) | 23.976 fps | 246 Мбит/сек
    Аудио: PCM | 1536 Кбит/сек | 2.0 канала, 48.0 КГц

    MI

    Формат : MPEG-4
    Профиль формата : QuickTime
    Идентификатор кодека : qt
    Размер файла : 6,92 Гбайт
    Продолжительность : 3 м. 59 с.
    Режим общего битрейта : Переменный
    Общий поток : 248 Мбит/сек
    Дата кодирования : UTC 2015-01-14 02:20:07
    Дата пометки : UTC 2015-01-14 02:41:04
    Библиотека кодирования : aapl
    ©TIM : 00:59:58:16
    ©TSC : 2997
    ©TSZ : 125
    Видео
    Идентификатор : 1
    Формат : ProRes
    Версия формата : Version 1
    Идентификатор кодека : ap4h
    Продолжительность : 3 м. 59 с.
    Вид битрейта : Переменный
    Битрейт : 246 Мбит/сек
    Ширина : 1920 пикселей
    Высота : 1080 пикселей
    Соотношение сторон : 16:9
    Режим частоты кадров : Постоянный
    Частота кадров : 23,976 кадра/сек
    Субдискретизация насыщенности : 4:4:4
    Тип развёртки : Прогрессивная
    Бит/(Пиксели*Кадры) : 4.954
    Размер потока : 6,88 Гбайт (99%)
    Библиотека кодирования : Apple
    Язык : English
    Дата кодирования : UTC 2015-01-14 02:20:07
    Дата пометки : UTC 2015-01-14 02:20:07
    Основные цвета : BT.709
    Характеристики трансфера : BT.709
    Коэффициенты матрицы : BT.709
    Аудио
    Идентификатор : 2
    Формат : PCM
    Параметр Endianness формата : Little
    Параметр Sign формата : Signed
    Идентификатор кодека : sowt
    Продолжительность : 3 м. 59 с.
    Вид битрейта : Постоянный
    Битрейт : 1536 Кбит/сек
    Каналы : 2 канала
    Расположение каналов : Front: L R
    Частота : 48,0 КГц
    Битовая глубина : 16 бит
    Размер потока : 43,9 Мбайт (1%)
    Язык : English
    Дата кодирования : UTC 2015-01-14 02:20:07
    Дата пометки : UTC 2015-01-14 02:20:07
    Прочее
    Идентификатор : 3
    Тип : Time code
    Формат : QuickTime TC
    Продолжительность : 3 м. 59 с.
    Временной код первого кадра : 00:59:58:16
    TimeCode_Striped/String : Да
    Язык : English
    Дата кодирования : UTC 2015-01-14 02:20:07
    Дата пометки : UTC 2015-01-14 02:20:07

    Release was prepared by 60 - fps



You cannot post new topics in this forum
You cannot reply to topics in this forum
You cannot edit your posts in this forum
You cannot delete your posts in this forum
You cannot vote in polls in this forum
You cannot attach files in this forum
You cannot download files in this forum