Dan Balan - Chica Bomb (2010) WEBRip 1080p | 60 fps Britney Spears - Oops! I Did It Again Uncut (2009) HD 1080p | 60 fps Bebe Rexha - I Got You (2017) WEBRip 1080p | 60 fps Luis Fonsi - Despacito ft. Daddy Yankee (2017) WEBRip 1080p | 60 fps Beyonce - Crazy In Love ft. JAY Z (2009) Full HD 1080p | 60 fps Britney Spears - Lucky (2009) Full HD 1080p | 60 fps Britney Spears - Toxic (2004) HDTVRip 1080p | 60 fps Rammstein - Pussy (2009) BDRip 1080p | 60 fps
  1. Longevity:
    4 years 11 months
    Posts:
    2417
    Gender:
    Male
    --Taylor Swift - Shake It Off (2014) WEBRip 1080p | 60 fps --Информация о Клипе
    Исполнитель: Taylor Swift
    Название: Shake It Off
    Год выхода: 2014
    Продолжительность: 00:04:01-Файл
    Кодек: MPEG4/ISO/AVC/ H.264
    Формат: MKV
    Качество: WEBRip 1080p
    Видео: 1920 x 1080 (1.778) at 60.000 fps ~12.5 Мбит/сек
    Аудио 1: AC-3 | 640 Кбит/сек | 48.0 KHz | 2 channels | 16 bits
    Аудио 2: DTS | 1413 Кбит/сек | 48.0 KHz | 2 channels | 16 bits
    Аудио 3: FLAC | 1 651 Kbps | 44.1 KHz | 2 channels | 24 bits

    MediaInfo

    Видео
    Идентификатор : 1
    Формат : AVC
    Формат/Информация : Advanced Video Codec
    Профиль формата : Main@L4.2
    Параметр CABAC формата : Да
    Параметр ReFrames формата : 3 кадра
    Идентификатор кодека : V_MPEG4/ISO/AVC
    Продолжительность : 4 м. 1 с.
    Ширина : 1920 пикселей
    Высота : 1080 пикселей
    Соотношение сторон : 16:9
    Режим частоты кадров : Постоянный
    Частота кадров : 59,880 кадров/сек
    Частота кадров в оригинале : 59,940 кадров/сек
    Стандарт вещания : PAL
    Цветовое пространство : YUV
    Субдискретизация насыщенности : 4:2:0
    Битовая глубина : 8 бит
    Тип развёртки : Прогрессивная
    Заголовок : www.60-fps.org
    Язык : English
    Default : Да
    Forced : Нет
    Основные цвета : BT.709
    Характеристики трансфера : BT.709
    Коэффициенты матрицы : BT.709
    colour_range : Limited
    Аудио #1
    Идентификатор : 2
    Формат : AC-3
    Формат/Информация : Audio Coding 3
    Расширение режима : CM (complete main)
    Параметр Endianness формата : Big
    Идентификатор кодека : A_AC3
    Продолжительность : 4 м. 1 с.
    Вид битрейта : Постоянный
    Битрейт : 640 Кбит/сек
    Каналы : 2 канала
    Расположение каналов : Front: L R
    Частота : 48,0 КГц
    Битовая глубина : 16 бит
    Метод сжатия : С потерями
    Задержка видео : 11 мс.
    Размер потока : 18,4 Мбайт (4%)
    Заголовок : AC3
    Default : Нет
    Forced : Нет
    DURATION : 00:03:58.869000000
    NUMBER_OF_FRAMES : 22394
    NUMBER_OF_BYTES : 42190296
    _STATISTICS_WRITING_APP : mkvmerge v7.6.0 ('Garden of Dreams') 32bit built on Feb 8 2015 12:51:39
    _STATISTICS_WRITING_DATE_UTC : 2015-08-01 18:48:22
    _STATISTICS_TAGS : BPS DURATION NUMBER_OF_FRAMES NUMBER_OF_BYTES
    Аудио #2
    Идентификатор : 3
    Формат : DTS
    Формат/Информация : Digital Theater Systems
    Режим : 16
    Параметр Endianness формата : Big
    Идентификатор кодека : A_DTS
    Продолжительность : 4 м. 1 с.
    Вид битрейта : Постоянный
    Битрейт : 1413 Кбит/сек
    Каналы : 2 канала
    Расположение каналов : Front: L R
    Частота : 48,0 КГц
    Битовая глубина : 16 бит
    Метод сжатия : С потерями
    Задержка видео : 50 мс.
    Размер потока : 40,7 Мбайт (9%)
    Заголовок : DTS
    Default : Да
    Forced : Нет
    Аудио #3
    Идентификатор : 4
    Формат : FLAC
    Формат/Информация : Free Lossless Audio Codec
    Идентификатор кодека : A_FLAC
    Продолжительность : 4 м. 1 с.
    Вид битрейта : Переменный
    Каналы : 2 канала
    Частота : 44,1 КГц
    Битовая глубина : 24 бит
    Задержка видео : 17 мс.
    Заголовок : FLAC
    Библиотека кодирования : libFLAC 1.3.0 (UTC 2013-05-26)
    Default : Нет
    Forced : Нет


    Last edited by Kryl on 2014-11-08 02:59; edited 3 times in total


You cannot post new topics in this forum
You cannot reply to topics in this forum
You cannot edit your posts in this forum
You cannot delete your posts in this forum
You cannot vote in polls in this forum
You cannot attach files in this forum
You cannot download files in this forum