1. Longevity:
    7 years
    Posts:
    2413
    Gender:
    Male
    -Taylor Swift - …Ready For It? (2017) MasterRip 1080p | 60 fps --Информация о Клипе
    Исполнитель: Taylor Swift
    Название: …Ready For It?
    Год выхода: 2017
    Продолжительность: 00:03:36
    Файл
    Кодек: V_MPEG4/ISO/AVC
    Контейнер: MKV
    Формат: AVC
    Качество: MasterRip 1080p | 60 fps

    Видео: 1920 x 1080 (16:1) | 59.940 fps | 15.0 Мбит/сек
    Аудио: AC3 | 640 Кбит/сек | 2.0 канала | 44.1 КГц | 16 бит

    MediaInfo

    Общее
    Уникальный идентификатор : 219928488891909492089528840405634846533 (0xA574AFAD4C6F6FB59F8CE7833B010F45)
    Полное имя : H:\Clips\Taylor Swift - …Ready For It (2017) MasterRip 1080p.60fps.mkv
    Формат : Matroska
    Версия формата : Version 2
    Размер файла : 405 Мбайт
    Продолжительность : 3 м. 36 с.
    Общий поток : 15,7 Мбит/сек
    Дата кодирования : UTC 2021-02-27 15:49:01
    Программа кодирования : mkvmerge v5.8.0 ('No Sleep / Pillow') built on Sep 2 2012 15:37:04
    Библиотека кодирования : libebml v1.2.3 + libmatroska v1.3.0
    Видео
    Идентификатор : 1
    Формат : AVC
    Формат/Информация : Advanced Video Codec
    Профиль формата : [email protected]
    Параметр CABAC формата : Да
    Параметр ReFrames формата : 4 кадра
    Режим смешивания : Header stripping
    Идентификатор кодека : V_MPEG4/ISO/AVC
    Продолжительность : 3 м. 36 с.
    Битрейт : 15,0 Мбит/сек
    Ширина : 1920 пикселей
    Высота : 1080 пикселей
    Соотношение сторон : 16:9
    Режим частоты кадров : Постоянный
    Частота кадров : 59,940 (60000/1001) кадров/сек
    Цветовое пространство : YUV
    Субдискретизация насыщенности : 4:2:0
    Битовая глубина : 8 бит
    Тип развёртки : Прогрессивная
    Бит/(Пиксели*Кадры) : 0.121
    Размер потока : 380 Мбайт (94%)
    Библиотека кодирования : x264 core 146 r2538 121396c
    Настройки программы : cabac=1 / ref=4 / deblock=1:0:0 / analyse=0x3:0x113 / me=umh / subme=8 / psy=1 / psy_rd=1.00:0.25 / mixed_ref=1 / me_range=16 / chroma_me=1 / trellis=1 / 8x8dct=1 / cqm=0 / deadzone=6,6 / fast_pskip=1 / chroma_qp_offset=-4 / threads=12 / lookahead_threads=3 / sliced_threads=0 / nr=0 / decimate=0 / interlaced=0 / bluray_compat=0 / constrained_intra=0 / bframes=3 / b_pyramid=2 / b_adapt=2 / b_bias=0 / direct=3 / weightb=1 / open_gop=0 / weightp=2 / keyint=600 / keyint_min=60 / scenecut=40 / intra_refresh=0 / rc_lookahead=50 / rc=2pass / mbtree=1 / bitrate=15000 / ratetol=1.0 / qcomp=0.80 / qpmin=0 / qpmax=69 / qpstep=4 / cplxblur=20.0 / qblur=0.5 / vbv_maxrate=50000 / vbv_bufsize=50000 / nal_hrd=none / filler=0 / ip_ratio=1.10 / aq=1:0.50
    Язык : English
    Default : Да
    Forced : Нет
    Аудио
    Идентификатор : 2
    Формат : AC-3
    Формат/Информация : Audio Coding 3
    Расширение режима : CM (complete main)
    Параметр Endianness формата : Big
    Режим смешивания : Header stripping
    Идентификатор кодека : A_AC3
    Продолжительность : 3 м. 36 с.
    Вид битрейта : Постоянный
    Битрейт : 640 Кбит/сек
    Каналы : 2 канала
    Расположение каналов : Front: L R
    Частота : 44,1 КГц
    Частота кадров : 28,711 кадров/сек (1536 spf)
    Битовая глубина : 16 бит
    Метод сжатия : С потерями
    Размер потока : 16,5 Мбайт (4%)
    Default : Да
    Forced : Нет

    Release was prepared by 60-fps.org

  2. Longevity:
    6 years 10 months
    Posts:
    50
    Gender:
    Male
    Спасибо за качественный релиз. Taylor Swift настоящий трудоголик. Да и Природа мимо неё не прошла. Форма и содержание не уровне, как говорится. Что редкость в наше время...
    07-Nov-2017 16:26 (after 10 days)
  3. Longevity:
    5 years 11 months
    Posts:
    23
    Gender:
    Unknown
    Вот,вот такие надо клипы снимать,что-то интересное,а не пляжи,которые надоели всем!
    19-Jan-2018 17:33 (after 2 months 12 days)
  4. Longevity:
    3 years 3 months
    Posts:
    65
    Gender:
    Male
    Please New upload
    27-Feb-2021 17:00 (after 3 years 1 month)
  5. Longevity:
    4 years 8 months
    Posts:
    314
    Gender:
    Male
    12343Please New upload
    Updated
    27-Feb-2021 18:52 (after 1 hour 51 minute)
  6. Longevity:
    3 years 3 months
    Posts:
    65
    Gender:
    Male
    12344
    12343Please New upload
    Updated
    Thank you
    27-Feb-2021 19:42 (after 49 minutes)


You cannot post new topics in this forum
You cannot reply to topics in this forum
You cannot edit your posts in this forum
You cannot delete your posts in this forum
You cannot vote in polls in this forum
You cannot attach files in this forum
You cannot download files in this forum