[Цитировать]
Kryl

--Taylor Swift - Out Of The Woods (2015) WEBRip 1080p | 60 fps
--Информация о Клипе
Исполнитель: Taylor Swift
Название: Out Of The Woods
Год выхода: 2015
Продолжительность: 00:04:16
О клипе:

Съемки клипа Тейлор Свифт «Out Of The Woods» проходили в ноябре 2015 года в Новой Зеландии. Команда певицы работала в непростых погодных условиях, а самой артистке пришлось померзнуть ради искусства, снимаясь в легком платье.
-Файл
Кодек: MPEG4/ISO/AVC/ H.264
Формат: MKV
Качество: WEBRip 1080p
Видео: 1920 x 804 (2.388) at 59.940 fps 5.0 Мбит/сек
Аудио: MP3 | 320 Кбит/сек | 44.1 KHz | 2 channels

MI

Видео
Идентификатор : 1
Формат : AVC
Формат/Информация : Advanced Video Codec
Профиль формата : High@L4.2
Параметр CABAC формата : Да
Параметр ReFrames формата : 3 кадра
Идентификатор кодека : V_MPEG4/ISO/AVC
Продолжительность : 4 м. 16 с.
Вид битрейта : Переменный
Битрейт : 4592 Кбит/сек
Максимальный битрейт : 5000 Кбит/сек
Ширина : 1920 пикселей
Высота : 804 пикселя
Соотношение сторон : 2,40:1
Режим частоты кадров : Постоянный
Частота кадров : 59,880 кадров/сек
Частота кадров в оригинале : 59,940 кадров/сек
Стандарт вещания : PAL
Цветовое пространство : YUV
Субдискретизация насыщенности : 4:2:0
Битовая глубина : 8 бит
Тип развёртки : Прогрессивная
Бит/(Пиксели*Кадры) : 0.050
Размер потока : 140 Мбайт (92%)
Заголовок : www.60-fps.org
Язык : English
Default : Да
Forced : Нет
Основные цвета : BT.709
Характеристики трансфера : BT.709
Коэффициенты матрицы : BT.709
colour_range : Limited
Аудио
Идентификатор : 2
Формат : MPEG Audio
Версия формата : Version 1
Профиль формата : Layer 3
Режим : Joint stereo
Идентификатор кодека : A_MPEG/L3
Идентификатор кодека/Подсказка : MP3
Продолжительность : 4 м. 16 с.
Вид битрейта : Постоянный
Битрейт : 320 Кбит/сек
Каналы : 2 канала
Частота : 44,1 КГц
Метод сжатия : С потерями
Размер потока : 9,79 Мбайт (6%)
Заголовок : MP3
Библиотека кодирования : LAME3.99.5
Default : Да
Forced : Нет

Релиз подготовлен 60 - fps

 
Показать сообщения:    

Текущее время: 06-Дек 15:13

Часовой пояс: UTC + 3


Вы не можете начинать темы
Вы не можете отвечать на сообщения
Вы не можете редактировать свои сообщения
Вы не можете удалять свои сообщения
Вы не можете голосовать в опросах
Вы не можете прикреплять файлы к сообщениям
Вы не можете скачивать файлы