Lady Gaga - Bad Romance (2009) Master | ProRes Lady Gaga - Poker Face (2009) Master | ProRes Jennifer Lopez - Waiting For Tonight (1999) 540p | Master | ProRes Lady Gaga - Paparazzi (2009) Master | ProRes Britney Spears - Hold It Against Me (2011) Master | ProRes Rihanna feat. Drake - Work (2016) Master | ProRes Lady Gaga - Born This Way (2011) Master | ProRes Rihanna - Shut Up And Drive (2007) Master | ProRes
  1. Longevity:
    5 years 2 months
    Posts:
    2418
    Gender:
    Male
    -Taylor Swift - I Knew You Were Trouble (2012) Master | ProRes --Информация о Клипе
    Исполнитель: Taylor Swift
    Название: I Knew You Were Trouble
    Год выхода: 2012
    Продолжительность: 00:05:57-Описание:
    «I Knew You Were Trouble» (название стилизованно, как «I Knew You Were Trouble.») (русск. «Я знала, ты станешь проблемой») — песня, написанная американской кантри и поп-певицей и автором песен Тейлор Свифт и шведскими продюсерами Максом Мартином и Shellback для четвёртого студийного альбома исполнительницы Red. Спродюсированная Мартиным и Shellback, композиция первоначально была выпущена лейблом Big Machine 9 октября 2012 года, как промосингл. Позже, 27 ноября, «I Knew You Were Trouble» была выпущена, как третий полноценный сингл из Red на территории США. В Великобритании песня стала вторым синглом из пластинки и её релиз состоялся 10 декабря 2012-го.
    «I Knew You Were Trouble» получила в основном положительные отзывы от музыкальных критиков, которые хвалили мейнстримовую направленность записи, но отмечали, что Свифт не зашла слишком далеко в экспериментах с дабстепом. В первую неделю после релиза, композиция была продана в количестве 416 тыс. экземпляров в США, что помогло ей дебютировать на третьем месте в Billboard Hot 100. Сингл также попал в чарты Австралии, Канады, Ирландии, Японии, Новой Зеландии и Великобритании. Позже песня стала медленно покидать чарты, но после полноценного релиза и выпуска видео достигла новых успехов, поднявшись до второго места в Billboard Hot 100 и установила новый рекорд продаж, разойдясь за неделю тиражом в 582 тысячи экземпляров в США. «I Knew You Were Trouble» стала четвёртым самым быстро распродаваемым цифровым синглом в истории американского музыкального рынка.
    -Файл
    Кодек: APCH
    Контейнер: MOV
    Формат: ProRes
    Качество: Master
    Видео: 1888 x 1062 (1.778) | 23.976 fps | 168 Мбит/сек
    Аудио: PCM | 1536 Кбит/сек | 2.0 канала, 48.0 КГц

    MI

    Формат : MPEG-4
    Профиль формата : QuickTime
    Идентификатор кодека : qt
    Размер файла : 7,04 Гбайт
    Продолжительность : 5 м. 57 с.
    Режим общего битрейта : Переменный
    Общий поток : 169 Мбит/сек
    Дата кодирования : UTC 2013-01-15 01:40:21
    Дата пометки : UTC 2013-01-15 02:04:22
    Библиотека кодирования : Apple QuickTime 7.7.1
    Media/UUID : FFA8A1C1-C939-42DA-91BD-92DB8E5DF351
    Видео
    Идентификатор : 1
    Формат : ProRes
    Версия формата : Version 0
    Профиль формата : High
    Идентификатор кодека : apch
    Продолжительность : 5 м. 57 с.
    Вид битрейта : Переменный
    Битрейт : 168 Мбит/сек
    Ширина : 1888 пикселей
    Ширина оригинала : 1920 пикселей
    Высота : 1062 пикселя
    Высота оригинала : 1080 пикселей
    Соотношение сторон : 16:9
    Режим частоты кадров : Постоянный
    Частота кадров : 23,976 кадра/сек
    Цветовое пространство : YUV
    Субдискретизация насыщенности : 4:2:2
    Тип развёртки : Прогрессивная
    Бит/(Пиксели*Кадры) : 3.488
    Размер потока : 6,98 Гбайт (99%)
    Библиотека кодирования : Apple
    Язык : English
    Дата кодирования : UTC 2012-12-12 03:50:45
    Дата пометки : UTC 2013-01-15 02:04:22
    Основные цвета : BT.709
    Характеристики трансфера : BT.709
    Коэффициенты матрицы : BT.709
    matrix_coefficients_Original : BT.709
    Аудио
    Идентификатор : 3
    Формат : PCM
    Параметр Endianness формата : Little
    Параметр Sign формата : Signed
    Идентификатор кодека : sowt
    Продолжительность : 5 м. 57 с.
    Вид битрейта : Постоянный
    Битрейт : 1536 Кбит/сек
    Каналы : 2 канала
    Расположение каналов : Front: L R
    Частота : 48,0 КГц
    Битовая глубина : 16 бит
    Размер потока : 65,4 Мбайт (1%)
    Язык : English
    Дата кодирования : UTC 2012-12-12 03:55:57
    Дата пометки : UTC 2013-01-15 02:04:22
    Текст
    Идентификатор : 4-CC1
    Формат : EIA-608
    Режим смешивания : Final Cut
    Идентификатор кодека : c608
    Продолжительность : 5 м. 57 с.
    Продолжительность оригинала : 5 м. 57 с.
    Вид битрейта : Постоянный
    Размер потока : 0,00 байт (0%)
    Размер потока оригинала : 4,70 Кбайт (0%)
    Язык : English
    Дата кодирования : UTC 2012-12-12 03:56:11
    Дата пометки : UTC 2013-01-15 02:04:22
    Source_Delay : 3589917
    Source_Delay_Source : Container
    Прочее
    Идентификатор : 2
    Тип : Time code
    Формат : QuickTime TC
    Продолжительность : 5 м. 57 с.
    Временной код первого кадра : 00:59:50:00
    TimeCode_Striped/String : Да
    Язык : English
    Дата кодирования : UTC 2012-12-12 03:55:57
    Дата пометки : UTC 2013-01-15 02:04:22

    Release was prepared by 60 - fps



You cannot post new topics in this forum
You cannot reply to topics in this forum
You cannot edit your posts in this forum
You cannot delete your posts in this forum
You cannot vote in polls in this forum
You cannot attach files in this forum
You cannot download files in this forum