[Цитировать]
Kryl

--Taylor Swift - Blank Space (2014) WEBRip 1080p | 60 fps --Информация о Клипе
Исполнитель: Taylor Swift
Название: Blank Space
Год выхода: 2014
Продолжительность: 00:03:51-Файл
Кодек: MPEG4/ISO/AVC/ H.264
Формат: MKV
Качество: WEBRip 1080p
Видео: 1920 x 808 (2.376) at 59.940 fps 10.0 Мбит/сек
Аудио 1: AC3 | 640 Кбит/сек | 48.0 KHz | 2 channels
Аудио 2: DTS | 1413 Кбит/сек | 48.0 KHz | 2 channels
Аудио 3: FLAC | 1020 Кбит/сек | 44.1 KHz | 2 channels

MediaInfo

Видео
Идентификатор : 1
Формат : AVC
Формат/Информация : Advanced Video Codec
Профиль формата : Main@L4.2
Параметр CABAC формата : Да
Параметр ReFrames формата : 3 кадра
Идентификатор кодека : V_MPEG4/ISO/AVC
Продолжительность : 3 м. 51 с.
Ширина : 1920 пикселей
Высота : 808 пикселей
Соотношение сторон : 2,40:1
Режим частоты кадров : Постоянный
Частота кадров : 59,880 кадров/сек
Частота кадров в оригинале : 59,940 кадров/сек
Стандарт вещания : PAL
Цветовое пространство : YUV
Субдискретизация насыщенности : 4:2:0
Битовая глубина : 8 бит
Тип развёртки : Прогрессивная
Заголовок : www.60-fps.org
Язык : English
Default : Да
Forced : Нет
Основные цвета : BT.709
Характеристики трансфера : BT.709
Коэффициенты матрицы : BT.709
colour_range : Limited
Аудио #1
Идентификатор : 2
Формат : AC-3
Формат/Информация : Audio Coding 3
Расширение режима : CM (complete main)
Параметр Endianness формата : Big
Идентификатор кодека : A_AC3
Продолжительность : 3 м. 51 с.
Вид битрейта : Постоянный
Битрейт : 640 Кбит/сек
Каналы : 2 канала
Расположение каналов : Front: L R
Частота : 48,0 КГц
Битовая глубина : 16 бит
Метод сжатия : С потерями
Размер потока : 17,7 Мбайт (5%)
Заголовок : AC3
Default : Да
Forced : Нет
DURATION : 00:03:51.830000000
NUMBER_OF_FRAMES : 21734
NUMBER_OF_BYTES : 40946856
_STATISTICS_WRITING_APP : mkvmerge v7.6.0 ('Garden of Dreams') 32bit built on Feb 8 2015 12:51:39
_STATISTICS_WRITING_DATE_UTC : 2015-08-01 16:59:49
_STATISTICS_TAGS : BPS DURATION NUMBER_OF_FRAMES NUMBER_OF_BYTES
Аудио #2
Идентификатор : 3
Формат : DTS
Формат/Информация : Digital Theater Systems
Режим : 16
Параметр Endianness формата : Big
Идентификатор кодека : A_DTS
Продолжительность : 3 м. 51 с.
Вид битрейта : Постоянный
Битрейт : 1413 Кбит/сек
Каналы : 2 канала
Расположение каналов : Front: L R
Частота : 48,0 КГц
Битовая глубина : 16 бит
Метод сжатия : С потерями
Размер потока : 39,1 Мбайт (11%)
Заголовок : DTS
Default : Нет
Forced : Нет
Аудио #3
Идентификатор : 4
Формат : FLAC
Формат/Информация : Free Lossless Audio Codec
Идентификатор кодека : A_FLAC
Продолжительность : 3 м. 51 с.
Вид битрейта : Переменный
Каналы : 2 канала
Частота : 44,1 КГц
Битовая глубина : 16 бит
Заголовок : FLAC
Библиотека кодирования : libFLAC 1.3.0 (UTC 2013-05-26)
Default : Нет
Forced : Нет

Релиз подготовлен 60 - fps

 
Показать сообщения:    

Текущее время: 02-Дек 21:09

Часовой пояс: UTC + 3


Вы не можете начинать темы
Вы не можете отвечать на сообщения
Вы не можете редактировать свои сообщения
Вы не можете удалять свои сообщения
Вы не можете голосовать в опросах
Вы не можете прикреплять файлы к сообщениям
Вы не можете скачивать файлы