Такси

-Название: Такси
Оригинальное название: Taxi
Год выпуска: 1998
Страна: Франция
Жанр: боевик, комедия, криминал
Продолжительность: 01:30:03
Перевод: Дубляж
Субтитры: русские (Полные)-Режиссер: Жерар Пирес / Gérard Pirès-В ролях: Сами Насери (Daniel Morales), Фредерик Дифенталь (Émilien Coutant-Kerbalec), Марион Котийяр (Lilly Bertineau), Эмма Сьоберг (Petra), Бернар Фарси (Commissaire Gibert), Мануэла Гурари (Camille Coutant-Kerbalec), Эдуард Монтут (Alain), Дэн Херцберг (Paulo), Жорж Нери (Joe), Рихард Заммель (German Gangster #1), Нильс Дюбо (German Gangster #2), Франк Либерт (German Gangster #3)-Описание:
Молодой таксист Даниэль помешан на быстрой езде. Как ураган проносится он по извилистым улицам Марселя на своем мощном ревущем звере «Пежо», пугая пассажиров и прохожих. Неподкупный полицейский Эмильен вынуждает его помочь в поимке банды грабителей, ускользающих от полиции на своих неуловимых «Мерседесах». И до самого конца не ясно, кто же сможет удержаться на крутом вираже...-Рейтинг

imdb.com: 6.90 (53 930)-Автор рипа:Tiberiumsun69
-Качество: BDRip 1080p / 60 FPS
Формат: MKV
Видео кодек: AVC
Аудио кодек:AC3
Видео: AVC, 1920x816 (2.35:1), 14000 kbps, 59,940 fps, 0,149 bpp
Аудио №1: русский / AC3 / 5.1 / 48 kHz / 448 kbps / 16 bit |Дубляж + Многоголосый, закадровый на вставки|
Аудио №2: русский / AC3 / 2.0 / 48 kHz / 192 kbps / 16 bit |Двухголосый, закадровый СТС / РТР|
Аудио №3: русский / AC3 / 5.1 / 48 kHz / 640 kbps / 16 bit |Двухголосый, закадровый Супербит / Пирамида|
Аудио №4: русский / AC3 / 5.1 / 48 kHz / 640 kbps / 16 bit |Двухголосый, закадровый DVD Союз Видео|
Аудио №5: французский / AC3 / 5.1 / 48 kHz / 640 kbps / 16 bit
Навигация по главам: есть- -

MI

General
Unique ID : 221543641393827975775698783310933748150 (0xA6ABC0D7EF2EEC43A96D85EA354969B6)
Complete name : A:1080p 60fpsТакси 1080p 60fpsТакси 1 1080p 60fps.mkv
Format : Matroska
Format version : Version 4 / Version 2
File size : 10.4 GiB
Duration : 1h 30mn
Overall bit rate : 16.5 Mbps
Movie name : R.G HD-Films by Tiberiumsun69 60fps
Encoded date : UTC 2014-11-24 12:04:29
Writing application : mkvmerge v6.8.0 ('Theme for Great Cities') 64bit built on Mar 2 2014 21:34:26
Writing library : libebml v1.3.0 + libmatroska v1.4.1
Attachment : Yes
Video
ID : 1
Format : AVC
Format/Info : Advanced Video Codec
Format profile : High@L4.1
Format settings, CABAC : Yes
Format settings, ReFrames : 4 frames
Codec ID : V_MPEG4/ISO/AVC
Duration : 1h 30mn
Bit rate : 14.0 Mbps
Width : 1 920 pixels
Height : 816 pixels
Display aspect ratio : 2.35:1
Frame rate : 59.940 fps
Color space : YUV
Chroma subsampling : 4:2:0
Bit depth : 8 bits
Scan type : Progressive
Bits/(Pixel*Frame) : 0.149
Stream size : 8.59 GiB (83%)
Title : R.G HD-Films by Tiberiumsun69 60fps
Writing library : x264 core 130 r2273 b3065e6
Encoding settings : cabac=1 / ref=4 / deblock=1:-1:-1 / analyse=0x3:0 / me=umh / subme=10 / psy=1 / psy_rd=1.00:0.00 / mixed_ref=1 / me_range=32 / chroma_me=0 / trellis=2 / 8x8dct=1 / cqm=0 / deadzone=21,11 / fast_pskip=0 / chroma_qp_offset=-2 / threads=12 / lookahead_threads=1 / sliced_threads=0 / nr=0 / decimate=0 / interlaced=0 / bluray_compat=0 / constrained_intra=0 / bframes=5 / b_pyramid=2 / b_adapt=2 / b_bias=0 / direct=3 / weightb=1 / open_gop=0 / weightp=2 / keyint=250 / keyint_min=59 / scenecut=40 / intra_refresh=0 / rc_lookahead=60 / rc=2pass / mbtree=1 / bitrate=14000 / ratetol=1.0 / qcomp=0.80 / qpmin=0 / qpmax=69 / qpstep=4 / cplxblur=20.0 / qblur=0.5 / ip_ratio=1.40 / aq=1:0.80
Language : English
Default : Yes
Forced : No
Audio #1
ID : 2
Format : AC-3
Format/Info : Audio Coding 3
Mode extension : CM (complete main)
Codec ID : A_AC3
Duration : 1h 30mn
Bit rate mode : Constant
Bit rate : 448 Kbps
Channel(s) : 6 channels
Channel positions : Front: L C R, Side: L R, LFE
Sampling rate : 48.0 KHz
Bit depth : 16 bits
Compression mode : Lossy
Stream size : 289 MiB (3%)
Title : Дубляж + Многоголосый, закадровый на вставки
Language : Russian
Default : Yes
Forced : No
Audio #2
ID : 3
Format : AC-3
Format/Info : Audio Coding 3
Mode extension : CM (complete main)
Codec ID : A_AC3
Duration : 1h 30mn
Bit rate mode : Constant
Bit rate : 192 Kbps
Channel(s) : 2 channels
Channel positions : Front: L R
Sampling rate : 48.0 KHz
Bit depth : 16 bits
Compression mode : Lossy
Stream size : 124 MiB (1%)
Title : Двухголосый, закадровый СТС / РТР
Language : Russian
Default : No
Forced : No
Audio #3
ID : 4
Format : AC-3
Format/Info : Audio Coding 3
Mode extension : CM (complete main)
Codec ID : A_AC3
Duration : 1h 30mn
Bit rate mode : Constant
Bit rate : 640 Kbps
Channel(s) : 6 channels
Channel positions : Front: L C R, Side: L R, LFE
Sampling rate : 48.0 KHz
Bit depth : 16 bits
Compression mode : Lossy
Stream size : 412 MiB (4%)
Title : Двухголосый, закадровый Супербит / Пирамида
Language : Russian
Default : No
Forced : No
Audio #4
ID : 5
Format : AC-3
Format/Info : Audio Coding 3
Mode extension : CM (complete main)
Codec ID : A_AC3
Duration : 1h 30mn
Bit rate mode : Constant
Bit rate : 640 Kbps
Channel(s) : 6 channels
Channel positions : Front: L C R, Side: L R, LFE
Sampling rate : 48.0 KHz
Bit depth : 16 bits
Compression mode : Lossy
Stream size : 412 MiB (4%)
Title : Двухголосый, закадровый DVD Союз Видео
Language : Russian
Default : No
Forced : No
Audio #5
ID : 6
Format : AC-3
Format/Info : Audio Coding 3
Mode extension : CM (complete main)
Codec ID : A_AC3
Duration : 1h 30mn
Bit rate mode : Constant
Bit rate : 640 Kbps
Channel(s) : 6 channels
Channel positions : Front: L C R, Side: L R, LFE
Sampling rate : 48.0 KHz
Bit depth : 16 bits
Compression mode : Lossy
Stream size : 412 MiB (4%)
Title : Оригинал
Language : French
Default : No
Forced : No
Text
ID : 7
Format : UTF-8
Codec ID : S_TEXT/UTF8
Codec ID/Info : UTF-8 Plain Text
Title : Полные
Language : Russian
Default : No
Forced : No
Menu
00:00:00.000 : en:Chapter 1
00:07:27.559 : en:Chapter 2
00:13:15.364 : en:Chapter 3
00:17:53.768 : en:Chapter 4
00:21:59.012 : en:Chapter 5
00:28:55.886 : en:Chapter 6
00:34:45.777 : en:Chapter 7
00:39:09.333 : en:Chapter 8
00:47:56.568 : en:Chapter 9
00:53:59.347 : en:Chapter 10
00:58:57.478 : en:Chapter 11
01:05:11.561 : en:Chapter 12
01:09:21.769 : en:Chapter 13
01:11:59.091 : en:Chapter 14
01:22:01.278 : en:Chapter 15
01:25:35.617 : en:Chapter 16

Скриншоты

Такси 2

-Название: Такси 2
Оригинальное название: Taxi 2
Год выпуска: 2000
Страна: Франция
Жанр: боевик, комедия, криминал
Продолжительность: 01:28:38
Перевод: Дубляж
Субтитры: русские (Полные)-Режиссер: Жерар Кравчик / Gérard Pirès-В ролях: Сами Насери (Daniel Morales), Фредерик Дифенталь (Émilien Coutant-Kerbalec), Марион Котийяр (Lilly Bertineau), Эмма Сьоберг (Petra), Бернар Фарси (Commissaire Gibert), Жан-Кристоф Буве (Général Edmond Bertineau), Фредерик Тирмон (Mother), Эдуард Монтут (Alain), Марк Фор (French Minister), Хирата Харухико (Japanese Minister), Цую Симидзу (Yuli), Ко Сузуки (Katano)-Описание:
Во Францию прибывает министр обороны Японии. Цель его визита - ознакомиться с французским опытом борьбы с терроризмом и подписать «контракт века» о взаимном сотрудничестве.
Неожиданно во время показательных выступлений французской полиции министра обороны похищает гангстерская группировка «Якудза», желающая сорвать заключение наиважнейшего контракта. Даниэль и Эмильен отправляются на поиски высокого гостя. В дело вступает уже хорошо знакомое нам такси...-Рейтинг

imdb.com: 6.40 (35 129)-Автор рипа:Tiberiumsun69
-Качество: BDRip 1080p / 60 FPS
Формат: MKV
Видео кодек: AVC
Аудио кодек:AC3
Видео: AVC, 1920x816 (2.35:1), 14000 kbps, 59,940 fps, 0,149 bpp
Аудио №1: русский / AC3 / 5.1 / 48 kHz / 448 kbps / 16 bit |Дубляж|
Аудио №2: французский / AC3 / 5.1 / 48 kHz / 640 kbps / 16 bit
Навигация по главам: есть- -

MI

General
Unique ID : 211880179407144893684606748258983572715 (0x9F66A3620217836799E57B6AA81D74EB)
Complete name : A:1080p 60fpsТакси 1080p 60fpsТакси 2 1080p 60fps.mkv
Format : Matroska
Format version : Version 4 / Version 2
File size : 9.32 GiB
Duration : 1h 28mn
Overall bit rate : 15.1 Mbps
Movie name : R.G HD-Films by Tiberiumsun69 60fps
Encoded date : UTC 2014-11-24 10:51:37
Writing application : mkvmerge v6.8.0 ('Theme for Great Cities') 64bit built on Mar 2 2014 21:34:26
Writing library : libebml v1.3.0 + libmatroska v1.4.1
Attachment : Yes
Video
ID : 1
Format : AVC
Format/Info : Advanced Video Codec
Format profile : High@L4.1
Format settings, CABAC : Yes
Format settings, ReFrames : 4 frames
Codec ID : V_MPEG4/ISO/AVC
Duration : 1h 28mn
Bit rate : 14.0 Mbps
Width : 1 920 pixels
Height : 816 pixels
Display aspect ratio : 2.35:1
Frame rate : 59.940 fps
Color space : YUV
Chroma subsampling : 4:2:0
Bit depth : 8 bits
Scan type : Progressive
Bits/(Pixel*Frame) : 0.149
Stream size : 8.47 GiB (91%)
Writing library : x264 core 142 r2491 24e4fed
Encoding settings : cabac=1 / ref=4 / deblock=1:-1:-1 / analyse=0x3:0 / me=umh / subme=10 / psy=1 / psy_rd=1.00:0.00 / mixed_ref=1 / me_range=32 / chroma_me=0 / trellis=2 / 8x8dct=1 / cqm=0 / deadzone=21,11 / fast_pskip=1 / chroma_qp_offset=-2 / threads=12 / lookahead_threads=1 / sliced_threads=0 / nr=0 / decimate=1 / interlaced=0 / bluray_compat=0 / constrained_intra=0 / bframes=5 / b_pyramid=2 / b_adapt=2 / b_bias=0 / direct=1 / weightb=1 / open_gop=0 / weightp=2 / keyint=250 / keyint_min=59 / scenecut=40 / intra_refresh=0 / rc=2pass / mbtree=0 / bitrate=14000 / ratetol=1.0 / qcomp=0.80 / qpmin=0 / qpmax=69 / qpstep=4 / cplxblur=20.0 / qblur=0.5 / ip_ratio=1.40 / pb_ratio=1.30 / aq=1:1.00
Language : English
Default : Yes
Forced : No
Audio #1
ID : 2
Format : AC-3
Format/Info : Audio Coding 3
Mode extension : CM (complete main)
Codec ID : A_AC3
Duration : 1h 28mn
Bit rate mode : Constant
Bit rate : 448 Kbps
Channel(s) : 6 channels
Channel positions : Front: L C R, Side: L R, LFE
Sampling rate : 48.0 KHz
Bit depth : 16 bits
Compression mode : Lossy
Stream size : 284 MiB (3%)
Title : Дубляж
Language : Russian
Default : Yes
Forced : No
Audio #2
ID : 3
Format : AC-3
Format/Info : Audio Coding 3
Mode extension : CM (complete main)
Codec ID : A_AC3
Duration : 1h 28mn
Bit rate mode : Constant
Bit rate : 640 Kbps
Channel(s) : 6 channels
Channel positions : Front: L C R, Side: L R, LFE
Sampling rate : 48.0 KHz
Bit depth : 16 bits
Compression mode : Lossy
Stream size : 406 MiB (4%)
Title : Оригинал
Language : French
Default : No
Forced : No
Text
ID : 4
Format : UTF-8
Codec ID : S_TEXT/UTF8
Codec ID/Info : UTF-8 Plain Text
Title : Полные
Language : Russian
Default : No
Forced : No
Menu
00:00:00.000 : en:Chapter 1
00:07:42.750 : en:Chapter 2
00:14:56.500 : en:Chapter 3
00:23:31.416 : en:Chapter 4
00:31:38.333 : en:Chapter 5
00:39:54.000 : en:Chapter 6
00:47:05.791 : en:Chapter 7
00:54:30.083 : en:Chapter 8
01:01:27.125 : en:Chapter 9
01:08:23.333 : en:Chapter 10
01:15:59.082 : en:Chapter 11
01:23:47.125 : en:Chapter 12

Скриншоты

Такси 3

-Название: Такси 3
Оригинальное название: Taxi 3
Год выпуска: 2003
Страна: Франция
Жанр: боевик, комедия
Продолжительность: 01:27:34
Перевод: Дубляж
Субтитры: русские (Полные)-Режиссер: Жерар Кравчик / Gérard Pirès-В ролях: Сами Насери (Daniel Morales), Фредерик Дифенталь (Émilien Coutant-Kerbalec), Бернар Фарси (Commissaire Gibert), Бай Лин (Qiu), Эмма Сьоберг (Petra), Марион Котийяр (Lilly Bertineau), Эдуард Монтут (Alain), Жан-Кристоф Буве (Général Edmond Bertineau), Леон-Пьер Мондини (Policier), Бернард Льопис (Policier), Жан-Луи Шлессер (Policier), Жан-Пьерр Мас (Policier)-Описание:
Банда Санта-Клаусов терроризирует Марсель в канун Рождества, обещая обчистить город до основания. Комиссар полиции уже задумал провести крупномасштабную операцию под кодовым названием «Снеговик», в который главная роль отведена таксисту Даниелю и полицейскому Эмильену.
Но как бы наши друзья не натворили куда больший вред, чем сами преступники, ведь чтобы поймать «мафию Дедов Морозов» друзья вытворяют на своем такси такое!-Рейтинг

imdb.com: 5.70 (26 614)-Автор рипа:Tiberiumsun69
-Качество: BDRip 1080p / 60 FPS
Формат: MKV
Видео кодек: AVC
Аудио кодек:AC3
Видео: AVC, 1920x816 (2.35:1), 14000 kbps, 59,940 fps, 0,149 bpp
Аудио №1: русский / AC3 / 5.1 / 48 kHz / 320 kbps / 16 bit |Дубляж|
Аудио №2: русский / AC3 / 1 / 48 kHz / 192 kbps / 16 bit |Многоголосый, закадровый Карусель|
Аудио №3: русский / AC3 / 1 / 48 kHz / 192 kbps / 16 bit |Многоголосый, закадровый DVO Инес СТС / ТНТ|
Аудио №4: французский / AC3 / 5.1 / 48 kHz / 640 kbps / 16 bit
Навигация по главам: есть- -

MI

General
Unique ID : 193932684450732280394719045184413582372 (0x91E613901FB9C0CBB69B3C9765554424)
Complete name : A:1080p 60fpsТакси 1080p 60fpsТакси 3 1080p 60fps.mkv
Format : Matroska
Format version : Version 4 / Version 2
File size : 9.38 GiB
Duration : 1h 27mn
Overall bit rate : 15.3 Mbps
Movie name : R.G HD-Films by Tiberiumsun69 60fps
Encoded date : UTC 2014-11-24 15:17:34
Writing application : mkvmerge v7.3.0 ('Nouages') 64bit built on Oct 22 2014 18:53:34
Writing library : libebml v1.3.0 + libmatroska v1.4.1
Attachment : Yes
Video
ID : 1
Format : AVC
Format/Info : Advanced Video Codec
Format profile : High@L4.1
Format settings, CABAC : Yes
Format settings, ReFrames : 4 frames
Codec ID : V_MPEG4/ISO/AVC
Duration : 1h 27mn
Bit rate : 14.0 Mbps
Width : 1 920 pixels
Height : 816 pixels
Display aspect ratio : 2.35:1
Frame rate : 59.940 fps
Color space : YUV
Chroma subsampling : 4:2:0
Bit depth : 8 bits
Scan type : Progressive
Bits/(Pixel*Frame) : 0.149
Stream size : 8.37 GiB (89%)
Title : R.G HD-Films by Tiberiumsun69 60fps
Writing library : x264 core 130 r2273 b3065e6
Encoding settings : cabac=1 / ref=4 / deblock=1:-1:-1 / analyse=0x3:0 / me=umh / subme=10 / psy=1 / psy_rd=1.00:0.00 / mixed_ref=1 / me_range=32 / chroma_me=0 / trellis=2 / 8x8dct=1 / cqm=0 / deadzone=21,11 / fast_pskip=0 / chroma_qp_offset=-2 / threads=12 / lookahead_threads=1 / sliced_threads=0 / nr=0 / decimate=0 / interlaced=0 / bluray_compat=0 / constrained_intra=0 / bframes=5 / b_pyramid=2 / b_adapt=2 / b_bias=0 / direct=3 / weightb=1 / open_gop=0 / weightp=2 / keyint=250 / keyint_min=59 / scenecut=40 / intra_refresh=0 / rc_lookahead=60 / rc=2pass / mbtree=1 / bitrate=14000 / ratetol=1.0 / qcomp=0.80 / qpmin=0 / qpmax=69 / qpstep=4 / cplxblur=20.0 / qblur=0.5 / ip_ratio=1.40 / aq=1:0.80
Language : English
Default : Yes
Forced : No
Audio #1
ID : 2
Format : AC-3
Format/Info : Audio Coding 3
Mode extension : CM (complete main)
Codec ID : A_AC3
Duration : 1h 27mn
Bit rate mode : Constant
Bit rate : 320 Kbps
Channel(s) : 6 channels
Channel positions : Front: L C R, Side: L R, LFE
Sampling rate : 48.0 KHz
Bit depth : 16 bits
Compression mode : Lossy
Stream size : 200 MiB (2%)
Title : Дубляж
Language : Russian
Default : Yes
Forced : No
Audio #2
ID : 3
Format : AC-3
Format/Info : Audio Coding 3
Mode extension : CM (complete main)
Codec ID : A_AC3
Duration : 1h 27mn
Bit rate mode : Constant
Bit rate : 192 Kbps
Channel(s) : 1 channel
Channel positions : Front: C
Sampling rate : 48.0 KHz
Bit depth : 16 bits
Compression mode : Lossy
Stream size : 120 MiB (1%)
Title : Многоголосый, закадровый Карусель
Language : Russian
Default : No
Forced : No
Audio #3
ID : 4
Format : AC-3
Format/Info : Audio Coding 3
Mode extension : CM (complete main)
Codec ID : A_AC3
Duration : 1h 27mn
Bit rate mode : Constant
Bit rate : 192 Kbps
Channel(s) : 1 channel
Channel positions : Front: C
Sampling rate : 48.0 KHz
Bit depth : 16 bits
Compression mode : Lossy
Stream size : 120 MiB (1%)
Title : Многоголосый, закадровый DVO Инес СТС / ТНТ
Language : Russian
Default : No
Forced : No
Audio #4
ID : 5
Format : AC-3
Format/Info : Audio Coding 3
Mode extension : CM (complete main)
Codec ID : A_AC3
Duration : 1h 27mn
Bit rate mode : Constant
Bit rate : 640 Kbps
Channel(s) : 6 channels
Channel positions : Front: L C R, Side: L R, LFE
Sampling rate : 48.0 KHz
Bit depth : 16 bits
Compression mode : Lossy
Stream size : 401 MiB (4%)
Title : Оригинал
Language : French
Default : No
Forced : No
Text
ID : 6
Format : UTF-8
Codec ID : S_TEXT/UTF8
Codec ID/Info : UTF-8 Plain Text
Title : Полные
Language : Russian
Default : No
Forced : No
Menu
00:00:00.000 : en:Chapter 1
00:08:42.833 : en:Chapter 2
00:16:12.833 : en:Chapter 3
00:23:34.000 : en:Chapter 4
00:30:56.333 : en:Chapter 5
00:39:56.166 : en:Chapter 6
00:48:00.500 : en:Chapter 7
00:55:21.916 : en:Chapter 8
01:03:13.666 : en:Chapter 9
01:10:22.291 : en:Chapter 10
01:18:05.125 : en:Chapter 11
01:21:48.708 : en:Chapter 12

Скриншоты

Такси 4

-Название: Такси 4
Оригинальное название: Taxi 4
Год выпуска: 2007
Страна: Франция
Жанр: боевик, комедия
Продолжительность: 01:31:06
Перевод: Дубляж
Субтитры: русские (Полные)-Режиссер: Жерар Кравчик / Gérard Pirès-В ролях: Сами Насери (Daniel Morales), Фредерик Дифенталь (Émilien Coutant-Kerbalec), Бернар Фарси (Commissaire Gibert), Эмма Сьоберг (Petra), Эдуард Монтут (Alain), Жан-Кристоф Буве (Général Edmond Bertineau), Жан-Люк Кушар (Le Belge), Франсуа Дамиенс (Serge), Морад Зегвенди (Sukk), Дрисс Спиноза (Léo), Мермоз Мельхиор (Maxime), Фредерик Тирмон (La Générale)-Описание:
Преступника N1 транспортируют из Бельгии в Конго. .. через Марсель. Всего несколько часов самый опасный человек в мире, надежно упакованный в скафандр и железную клетку, должен пробыть в полицейском участке комиссара Жибера.
Но стеречь преступника доверили Эмильену... Петра внедрится в банду и очарует злодея, Жибер задаст жару бандитам и покажет, как настоящие французы играют в футбол. И, конечно, полицейским Марселя опять не обойтись без помощи Даниеля и его реактивного такси.-Рейтинг

imdb.com: 5.50 (16 415)-Автор рипа:Tiberiumsun69
-Качество: BDRip 1080p / 60 FPS
Формат: MKV
Видео кодек: AVC
Аудио кодек:AC3
Видео: AVC, 1920x816 (2.35:1), 14000 kbps, 59,940 fps, 0,149 bpp
Аудио №1: русский / AC3 / 5.1 / 48 kHz / 448 kbps / 16 bit |Дубляж|
Аудио №2: русский / AC3 / 1 / 48 kHz / 192 kbps / 16 bit |Двухголосый, закадровый DVO Инес СТС / ТНТ|
Аудио №3: французский / AC3 / 5.1 / 48 kHz / 640 kbps / 16 bit
Навигация по главам: есть- -

MI

General
Unique ID : 254477131963593560770440871432550365523 (0xBF72834ADC8EFADBB7AF3D5F4A903953)
Complete name : A:1080p 60fpsТакси 1080p 60fpsТакси 4 1080p 60fps.mkv
Format : Matroska
Format version : Version 4 / Version 2
File size : 9.71 GiB
Duration : 1h 31mn
Overall bit rate : 15.3 Mbps
Movie name : R.G HD-Films by Tiberiumsun69 60fps
Encoded date : UTC 2014-11-24 15:46:24
Writing application : mkvmerge v7.3.0 ('Nouages') 64bit built on Oct 22 2014 18:53:34
Writing library : libebml v1.3.0 + libmatroska v1.4.1
Attachment : Yes
Video
ID : 1
Format : AVC
Format/Info : Advanced Video Codec
Format profile : High@L4.1
Format settings, CABAC : Yes
Format settings, ReFrames : 4 frames
Codec ID : V_MPEG4/ISO/AVC
Duration : 1h 31mn
Bit rate : 14.0 Mbps
Width : 1 920 pixels
Height : 816 pixels
Display aspect ratio : 2.35:1
Frame rate : 59.940 fps
Color space : YUV
Chroma subsampling : 4:2:0
Bit depth : 8 bits
Scan type : Progressive
Bits/(Pixel*Frame) : 0.149
Stream size : 8.71 GiB (90%)
Title : R.G HD-Films by Tiberiumsun69 60fps
Writing library : x264 core 130 r2273 b3065e6
Encoding settings : cabac=1 / ref=4 / deblock=1:-1:-1 / analyse=0x3:0 / me=umh / subme=10 / psy=1 / psy_rd=1.00:0.00 / mixed_ref=1 / me_range=32 / chroma_me=0 / trellis=2 / 8x8dct=1 / cqm=0 / deadzone=21,11 / fast_pskip=0 / chroma_qp_offset=-2 / threads=12 / lookahead_threads=1 / sliced_threads=0 / nr=0 / decimate=0 / interlaced=0 / bluray_compat=0 / constrained_intra=0 / bframes=5 / b_pyramid=2 / b_adapt=2 / b_bias=0 / direct=3 / weightb=1 / open_gop=0 / weightp=2 / keyint=250 / keyint_min=59 / scenecut=40 / intra_refresh=0 / rc_lookahead=60 / rc=2pass / mbtree=1 / bitrate=14000 / ratetol=1.0 / qcomp=0.80 / qpmin=0 / qpmax=69 / qpstep=4 / cplxblur=20.0 / qblur=0.5 / ip_ratio=1.40 / aq=1:0.80
Language : English
Default : Yes
Forced : No
Audio #1
ID : 2
Format : AC-3
Format/Info : Audio Coding 3
Mode extension : CM (complete main)
Codec ID : A_AC3
Duration : 1h 31mn
Bit rate mode : Constant
Bit rate : 448 Kbps
Channel(s) : 6 channels
Channel positions : Front: L C R, Side: L R, LFE
Sampling rate : 48.0 KHz
Bit depth : 16 bits
Compression mode : Lossy
Stream size : 292 MiB (3%)
Title : Дубляж
Language : Russian
Default : Yes
Forced : No
Audio #2
ID : 3
Format : AC-3
Format/Info : Audio Coding 3
Mode extension : CM (complete main)
Codec ID : A_AC3
Duration : 1h 31mn
Bit rate mode : Constant
Bit rate : 192 Kbps
Channel(s) : 1 channel
Channel positions : Front: C
Sampling rate : 48.0 KHz
Bit depth : 16 bits
Compression mode : Lossy
Stream size : 125 MiB (1%)
Title : Двухголосый, закадровый DVO Инес СТС / ТНТ
Language : Russian
Default : No
Forced : No
Audio #3
ID : 4
Format : AC-3
Format/Info : Audio Coding 3
Mode extension : CM (complete main)
Codec ID : A_AC3
Duration : 1h 31mn
Bit rate mode : Constant
Bit rate : 640 Kbps
Channel(s) : 6 channels
Channel positions : Front: L C R, Side: L R, LFE
Sampling rate : 48.0 KHz
Bit depth : 16 bits
Compression mode : Lossy
Stream size : 417 MiB (4%)
Title : Оригинал
Language : French
Default : No
Forced : No
Text
ID : 5
Format : UTF-8
Codec ID : S_TEXT/UTF8
Codec ID/Info : UTF-8 Plain Text
Title : Полные
Language : Russian
Default : No
Forced : No
Menu
00:00:00.000 : Chapter 01
00:10:32.994 : Chapter 02
00:21:19.974 : Chapter 03
00:31:45.015 : Chapter 04
00:40:37.004 : Chapter 05
00:47:42.930 : Chapter 06
00:52:07.986 : Chapter 07
00:57:57.960 : Chapter 08
01:04:24.931 : Chapter 09
01:09:12.885 : Chapter 10
01:17:53.947 : Chapter 11
01:22:50.952 : Chapter 12

Скриншоты

[Цитировать]
Владимир 1965

Большое спасибо за релиз

[Цитировать]
Иван686

дайте скорости
 
Показать сообщения:    

Текущее время: 02-Дек 21:11

Часовой пояс: UTC + 3


Вы не можете начинать темы
Вы не можете отвечать на сообщения
Вы не можете редактировать свои сообщения
Вы не можете удалять свои сообщения
Вы не можете голосовать в опросах
Вы не можете прикреплять файлы к сообщениям
Вы не можете скачивать файлы