Топ Топиков за 24 часа
 
Couple (2016) Full HD 1080p | 60 fps Preppy Girl Threesome Get Three BBCs (2016) HD 1080p | 60 fps SKILLED SLUT LOVES HER JOB (2017) Full HD 1080p | 60 fps HOT BLACK GIRLS CREAMPIED(2017) Full HD 1080p | 60 fps Exciting Rehearsal with Sonya Sweet (2016) Full HD 1080p | 60 fps Natalia Starr (2017) Full HD 1080p | 60 fps Megan Rain (2017) Full HD 1080p | 60 fps DVJ BAZUKA - Sweet Dance (2017) WEBRip 1080p | 60 fps DVJ BAZUKA - Gangsta Shit (2017) WEBRip 1080p | 60 fps Anjelica - You Belong To Me (2012) HD 1080p | 60 fps Study Buddies (2016) HD 1080p | 60 fps Christmas with Nancy A (2016) Full HD 1080p | 60 fps
  1. Стаж:
    3 года 1 месяц
    Сообщений:
    2082
    Пол:
    Мужской
     
    Take Me Away To That Special Place - Episode 2 (2016) HD 1080p | 60 fps- Информация о ролике
    Название: Take Me Away To That Special Place - Episode 2
    Год выхода: 2016
    Жанр: Bonde, Brunette, Trimmed, Natural Breasts, Kissing, Fingering, Cunnilingus, Lesbian
    В ролях: Naomi Nevena, Talia Mint
    Продолжительность: 00:25:19
    -Сюжет:
    Naomi Nevena eats Talia Mint to a tremendous orgasm over the opening credits, setting the scene for a music video style montage of romantic and arousing moments between the two. Naomi tries on some sexy lingerie in preparation for Talia’s arrival, and after a tender reunion they kiss passionately and undress for each other. Naked on the sofa, Naomi sucks Talia’s nipples and kisses her way down to her pussy, licking hungrily and then fingering her to a climax. They move into scissors, Naomi on top and setting the pace as she grinds on her girlfriend frantically. Talia gets on her hands and knees for Naomi to penetrate her even harder and deeper, shaking uncontrollably as pleasure courses through her body. She sits astride Naomi to get rubbed to another mindblowing climax. Naomi lies back and Talia licks and frigs her pussy, delicately at first but with growing intensity. She lifts her legs high and Talia thrusts a finger into her tight asshole, adding a second as Naomi fingers her own pussy to ecstasy.- Файл
    Кодек: MPEG4/ISO/AVC H.264
    Формат: MKV
    Качество: HD 1080p
    Видео: 1920 x 1080 (1.778) | 59.940 fps | 20.0 Мбит/сек
    Аудио: AC-3 | 2.0 | 48.0 kHz | 256 kbps | 16 bit

    MedifInfo

    Видео
    Идентификатор : 1
    Формат : AVC
    Формат/Информация : Advanced Video Codec
    Профиль формата : Main@L4.2
    Параметр CABAC формата : Да
    Параметр ReFrames формата : 3 кадра
    Идентификатор кодека : V_MPEG4/ISO/AVC
    Продолжительность : 25 м.
    Битрейт : 19,5 Мбит/сек
    Ширина : 1920 пикселей
    Высота : 1080 пикселей
    Соотношение сторон : 16:9
    Режим частоты кадров : Постоянный
    Частота кадров : 59,880 кадров/сек
    Частота кадров в оригинале : 59,940 кадров/сек
    Стандарт вещания : PAL
    Цветовое пространство : YUV
    Субдискретизация насыщенности : 4:2:0
    Битовая глубина : 8 бит
    Тип развёртки : Прогрессивная
    Бит/(Пиксели*Кадры) : 0.157
    Размер потока : 3,44 Гбайт (97%)
    Заголовок : www.60-fps.org
    Язык : English
    Default : Да
    Forced : Нет
    Основные цвета : BT.709
    Характеристики трансфера : BT.709
    Коэффициенты матрицы : BT.709
    colour_range : Limited
    Аудио
    Идентификатор : 2
    Формат : AC-3
    Формат/Информация : Audio Coding 3
    Расширение режима : CM (complete main)
    Параметр Endianness формата : Big
    Идентификатор кодека : A_AC3
    Продолжительность : 25 м.
    Вид битрейта : Постоянный
    Битрейт : 256 Кбит/сек
    Каналы : 2 канала
    Расположение каналов : Front: L R
    Частота : 48,0 КГц
    Битовая глубина : 16 бит
    Метод сжатия : С потерями
    Размер потока : 46,4 Мбайт (1%)
    Язык : English
    Default : Да
    Forced : Нет

    Скриншоты

    Релиз подготовлен 60 - fps



Вы не можете начинать темы
Вы не можете отвечать на сообщения
Вы не можете редактировать свои сообщения
Вы не можете удалять свои сообщения
Вы не можете голосовать в опросах
Вы не можете прикреплять файлы к сообщениям
Вы не можете скачивать файлы