Тор: Рагнарёк / Thor: Ragnarok (2017) BDRip 1080p | 60 fps Стражи Галактики. Часть 2 / Guardians of the Galaxy Vol. 2 (2017) BDRip 1080p | 60 fps Мстители: Эра Альтрона / Avengers: Age of Ultron (2015) BDRip 1080p | 60 fps Человек-паук: Возвращение домой / Spider-Man: Homecoming (2017) BDRip 1080p | 60 fps Валериан и город тысячи планет / Valerian and the City of a Thousand Planets (2017) BDRip 1080p | 60 fps Доктор Стрэндж / Doctor Strange (2016) BDRip 1080p | 60 fps Пираты Карибского моря: Мертвецы не рассказывают сказки / Pirates of the Caribbean: Dead Men Tell No Tales (2017) BDRip 1080p | 60 fps Аватар / Avatar (2009) BDRip 1080p | 60 fps
  1. Стаж:
    1 год 9 месяцев
    Сообщений:
    459
    Пол:
    Мужской
    Фильм «Sit. Stay. Play Dad» Фильм- Информация
    Название: Так себе каникулы
    Оригинальное название: Old Dogs
    Год выхода: 2009
    Жанр: комедия, семейный
    Режиссер: Уолт Бекер
    Сценарий: Дэвид Даймонд, Дэвид Вайсман
    Продюсер: Питер Абрамс, Роберт Л. Леви, Эндрю Панай
    В ролях: Джон Траволта,Робин Уильямс,Келли Престон,Коннер Рэйберн,Элла Блю Траволта,Лори Лафлин,Сет Грин,Берни Мак,Мэтт Диллон,Энн-Маргрет
    --Сюжет:
    Двое старых приятелей и деловых партнеров внезапно оказываются в ситуации, когда им приходится заняться воспитанием двух шумных близнецов-семилеток. Более того, переполох не ограничивается домашними заботами. Детишек надо еще вывезти отдыхать в летний лагерь, а там и близняшки, и их опекуны оказываются во власти придирчивого вожатого — и все это накануне важной сделки, от которой зависит будущее предприятия горе-опекунов. Справятся ли закоренелые холостяки с этой непростой ситуацией?-- Страна: США
    Продолжительность: 01:28:10

    Файл
    Кодек: MPEG4/ISO/AVC H.264/High@L4.1
    Формат: MKV
    Качество: BDRip 1080p | 60 fps
    Видео: 1920 x 1040 (1.846) | 59.940 fps | 10,0 Мбит/сек
    Аудио 1: AC-3| 5.1 | 48 kHz | 640 Кбит/сек | 16 bit | Дубляж
    Аудио 2: AC-3| 5.1 | 48 kHz | 640 Кбит/сек | 16 bit | Дубляж
    Аудио 3: AC-3| 5.1 | 48 kHz | 640 Кбит/сек | 16 bit | Оригинал
    Субтитры: Russian,Ukrainian,English,French,Spanish,Portuguese,Hebrew

    MedifInfo

    Видео
    Идентификатор : 1
    Формат : AVC
    Формат/Информация : Advanced Video Codec
    Профиль формата : High@L4.1
    Параметр CABAC формата : Да
    Параметр ReFrames формата : 5 кадров
    Идентификатор кодека : V_MPEG4/ISO/AVC
    Продолжительность : 1 ч. 28 м.
    Битрейт : 10000 Кбит/сек
    Ширина : 1920 пикселей
    Высота : 1040 пикселей
    Соотношение сторон : 1,85:1
    Режим частоты кадров : Постоянный
    Частота кадров : 59,940 (60000/1001) кадров/сек
    Цветовое пространство : YUV
    Субдискретизация насыщенности : 4:2:0
    Битовая глубина : 8 бит
    Тип развёртки : Прогрессивная
    Бит/(Пиксели*Кадры) : 0.084
    Размер потока : 6,13 Гбайт (84%)
    Заголовок : Талямба: 60-fps.org
    Библиотека кодирования : x264 core 146 r2538 121396c
    Настройки программы : cabac=1 / ref=5 / deblock=1:-3:-3 / analyse=0x3:0x113 / me=umh / subme=8 / psy=1 / psy_rd=1.00:0.25 / mixed_ref=1 / me_range=32 / chroma_me=1 / trellis=1 / 8x8dct=1 / cqm=0 / deadzone=6,6 / fast_pskip=1 / chroma_qp_offset=-4 / threads=12 / lookahead_threads=2 / sliced_threads=0 / nr=0 / decimate=0 / interlaced=0 / bluray_compat=0 / constrained_intra=0 / bframes=3 / b_pyramid=2 / b_adapt=2 / b_bias=0 / direct=3 / weightb=1 / open_gop=0 / weightp=2 / keyint=250 / keyint_min=23 / scenecut=40 / intra_refresh=0 / rc_lookahead=50 / rc=2pass / mbtree=1 / bitrate=10000 / ratetol=1.0 / qcomp=0.80 / qpmin=0 / qpmax=69 / qpstep=4 / cplxblur=20.0 / qblur=0.5 / vbv_maxrate=14000 / vbv_bufsize=14000 / nal_hrd=none / filler=0 / ip_ratio=1.10 / aq=1:0.50
    Язык : English
    Default : Да
    Forced : Нет
    Аудио #1
    Идентификатор : 2
    Формат : AC-3
    Формат/Информация : Audio Coding 3
    Расширение режима : CM (complete main)
    Параметр Endianness формата : Big
    Идентификатор кодека : A_AC3
    Продолжительность : 1 ч. 28 м.
    Вид битрейта : Постоянный
    Битрейт : 640 Кбит/сек
    Каналы : 6 каналов
    Расположение каналов : Front: L C R, Side: L R, LFE
    Частота : 48,0 КГц
    Частота кадров : 31,250 кадров/сек (1536 spf)
    Битовая глубина : 16 бит
    Метод сжатия : С потерями
    Размер потока : 404 Мбайт (5%)
    Заголовок : Дубляж
    Язык : Russian
    Default : Да
    Forced : Нет
    Аудио #2
    Идентификатор : 3
    Формат : AC-3
    Формат/Информация : Audio Coding 3
    Расширение режима : CM (complete main)
    Параметр Endianness формата : Big
    Идентификатор кодека : A_AC3
    Продолжительность : 1 ч. 28 м.
    Вид битрейта : Постоянный
    Битрейт : 640 Кбит/сек
    Каналы : 6 каналов
    Расположение каналов : Front: L C R, Side: L R, LFE
    Частота : 48,0 КГц
    Частота кадров : 31,250 кадров/сек (1536 spf)
    Битовая глубина : 16 бит
    Метод сжатия : С потерями
    Размер потока : 404 Мбайт (5%)
    Заголовок : Украинский
    Язык : Ukrainian
    Default : Нет
    Forced : Нет
    Аудио #3
    Идентификатор : 4
    Формат : AC-3
    Формат/Информация : Audio Coding 3
    Расширение режима : CM (complete main)
    Параметр Endianness формата : Big
    Идентификатор кодека : A_AC3
    Продолжительность : 1 ч. 28 м.
    Вид битрейта : Постоянный
    Битрейт : 640 Кбит/сек
    Каналы : 6 каналов
    Расположение каналов : Front: L C R, Side: L R, LFE
    Частота : 48,0 КГц
    Частота кадров : 31,250 кадров/сек (1536 spf)
    Битовая глубина : 16 бит
    Метод сжатия : С потерями
    Размер потока : 404 Мбайт (5%)
    Заголовок : Оригинал
    Язык : English
    Default : Нет
    Forced : Нет
    Текст #1
    Идентификатор : 5
    Формат : UTF-8
    Идентификатор кодека : S_TEXT/UTF8
    Идентификатор кодека/Информация : UTF-8 Plain Text
    Продолжительность : 1 ч. 24 м.
    Битрейт : 135 бит/сек
    Count of elements : 1379
    Размер потока : 83,7 Кбайт (0%)
    Язык : Russian
    Default : Нет
    Forced : Нет
    Текст #2
    Идентификатор : 6
    Формат : UTF-8
    Идентификатор кодека : S_TEXT/UTF8
    Идентификатор кодека/Информация : UTF-8 Plain Text
    Продолжительность : 1 ч. 24 м.
    Битрейт : 119 бит/сек
    Count of elements : 1383
    Размер потока : 73,5 Кбайт (0%)
    Язык : Ukrainian
    Default : Нет
    Forced : Нет
    Текст #3
    Идентификатор : 7
    Формат : UTF-8
    Идентификатор кодека : S_TEXT/UTF8
    Идентификатор кодека/Информация : UTF-8 Plain Text
    Продолжительность : 1 ч. 24 м.
    Битрейт : 88 бит/сек
    Count of elements : 1431
    Размер потока : 54,9 Кбайт (0%)
    Язык : English
    Default : Нет
    Forced : Нет
    Текст #4
    Идентификатор : 8
    Формат : UTF-8
    Идентификатор кодека : S_TEXT/UTF8
    Идентификатор кодека/Информация : UTF-8 Plain Text
    Продолжительность : 1 ч. 24 м.
    Битрейт : 86 бит/сек
    Count of elements : 1324
    Размер потока : 53,4 Кбайт (0%)
    Язык : French
    Default : Нет
    Forced : Нет
    Текст #5
    Идентификатор : 9
    Формат : UTF-8
    Идентификатор кодека : S_TEXT/UTF8
    Идентификатор кодека/Информация : UTF-8 Plain Text
    Продолжительность : 1 ч. 24 м.
    Битрейт : 73 бит/сек
    Count of elements : 1281
    Размер потока : 45,1 Кбайт (0%)
    Язык : Spanish
    Default : Нет
    Forced : Нет
    Текст #6
    Идентификатор : 10
    Формат : UTF-8
    Идентификатор кодека : S_TEXT/UTF8
    Идентификатор кодека/Информация : UTF-8 Plain Text
    Продолжительность : 1 ч. 24 м.
    Битрейт : 74 бит/сек
    Count of elements : 1261
    Размер потока : 46,0 Кбайт (0%)
    Язык : Portuguese
    Default : Нет
    Forced : Нет
    Текст #7
    Идентификатор : 11
    Формат : UTF-8
    Идентификатор кодека : S_TEXT/UTF8
    Идентификатор кодека/Информация : UTF-8 Plain Text
    Продолжительность : 1 ч. 24 м.
    Битрейт : 116 бит/сек
    Count of elements : 1309
    Размер потока : 71,6 Кбайт (0%)
    Язык : Hebrew
    Default : Нет
    Forced : Нет
    Меню
    00:00:00.000 : en:Pictures/Main Title
    00:03:26.164 : en:The Miama Story
    00:08:41.938 : en:You're So Tam!
    00:12:38.007 : en:Daddy!
    00:18:50.755 : en:I'll Take the Kids
    00:23:48.260 : en:Grandparents Club
    00:25:38.537 : en:Moving In With Charlie!
    00:31:09.117 : en:Child-Proofing
    00:33:35.722 : en:Let's Go Camping
    00:37:25.368 : en:Ultimate Frisbee
    00:39:45.466 : en:Remember Where They Go?
    00:44:01.264 : en:The Golf Game
    00:50:10.007 : en:I Need Help
    00:51:54.194 : en:The Human Puppet
    00:56:31.805 : en:Breakthrough!
    01:02:20.153 : en:Dan's Choice
    01:07:29.128 : en:Changes
    01:13:36.912 : en:Apology/Get Them Back!
    01:16:36.717 : en:Superhero!
    01:22:52.885 : en:One Year Later/End Credits


Вы не можете начинать темы
Вы не можете отвечать на сообщения
Вы не можете редактировать свои сообщения
Вы не можете удалять свои сообщения
Вы не можете голосовать в опросах
Вы не можете прикреплять файлы к сообщениям
Вы не можете скачивать файлы