Топ Топиков за 24 часа
 
Тачки 3 / Cars 3 (2017) BDRip 1080p | 60 fps Монстры на каникулах / Hotel Transylvania (2012) BDRip 720p | 60 fps Моана / Moana (2016) BDRip 720p | 60 fps Гадкий я 3 / Despicable Me 3 (2017) BDRip 1080p | 60 fps Холодное сердце / Frozen (2013) BDRip-AVC | 60 fps Ральф / Wreck-It Ralph (2012) BDRip 720p | 60 fps Зверополис / Zootopia (2016) BDRip 720p | 60 fps Angry Birds в кино / The Angry Birds Movie (2016) BDRip 720p | 60 fps Тайная жизнь домашних животных / The Secret Life of Pets (2016) BDRip 1080p | 60 fps Головоломка / Inside Out (2015) BDRip 720p | 60 fps Призрак в доспехах: Антология / Koukaku Kidoutai: Antology (1995-2013) BDRip-AVC | 60 fps Кубо. Легенда о самурае / Kubo and the Two Strіngs (2016) BDRip 1080p | 60 fps
  1. Стаж:
    3 года 2 месяца
    Сообщений:
    2116
    Пол:
    Мужской
     
    «Гонка продолжается, пока сверкает молния» Информация
    Название: Тачки 3
    Оригинальное название: Cars 3
    Год выхода: 2017
    Жанр: Мультфильм, комедия, приключения, семейный, спорт, полнометражный
    Режиссер: Брайан Фи
    Сценарий: Кил Мюррэй, Боб Питерсон, Майк Рич
    Продюсер: Джон Лассетер, Кевин Реэр, Андреа Уоррен
    Персонажей озвучивали: Оуэн Уилсон, Пол Ньюман, Бонни Хант, Ларри Кейбл Гай, Чич Марин, Тони Шэлоуб, Гуидо Куарони, Дженифер Льюис, Пол Дули, Майкл Уоллис

    Сюжет:
    Встречайте самого знаменитого гонщика всех времен, легенду гоночного трека Молнию Маккуина!
    Герой все еще продолжает показывать лучшие результаты на всех турнирах, однако победы даются ему не так легко, а конкуренция становится все жестче. Молнию Маккуина ждут захватывающие приключения, где он встретит новых друзей, а также поймет, что не только скорость и мощность мотора делают гонщика чемпионом.

    Страна: США
    Продолжительность: 01:42:25

    Файл
    Кодек: MPEG4|ISO|AVC|H.264|
    Формат: MKV
    Качество: BDRip 720p | 60 fps
    Видео: 1280 x 536 (2.388) | 59.940 fps | 10.0 Мбит/сек
    Аудио 01: AC3 | 5.1 | 48 kHz | 384 kbps | 16 bit | Дубляж - iTunes |
    Аудио 02: AC3 | 5.1 | 48 kHz | 448 kbps | 16 bit | English |
    Субтитры: Русские (full), английские

    MedifInfo

    Видео
    Идентификатор : 1
    Формат : AVC
    Формат/Информация : Advanced Video Codec
    Профиль формата : High@L4.1
    Параметр CABAC формата : Да
    Параметр ReFrames формата : 3 кадра
    Идентификатор кодека : V_MPEG4/ISO/AVC
    Продолжительность : 1 ч. 42 м.
    Вид битрейта : Переменный
    Битрейт : 9734 Кбит/сек
    Максимальный битрейт : 10000 Кбит/сек
    Ширина : 1280 пикселей
    Высота : 536 пикселей
    Соотношение сторон : 2,40:1
    Режим частоты кадров : Постоянный
    Частота кадров : 59,880 кадров/сек
    Частота кадров в оригинале : 59,940 кадров/сек
    Стандарт вещания : PAL
    Цветовое пространство : YUV
    Субдискретизация насыщенности : 4:2:0
    Битовая глубина : 8 бит
    Тип развёртки : Прогрессивная
    Бит/(Пиксели*Кадры) : 0.237
    Размер потока : 6,96 Гбайт (90%)
    Заголовок : www.60-fps.org
    Язык : English
    Default : Да
    Forced : Нет
    Основные цвета : BT.601 NTSC
    Характеристики трансфера : BT.601
    Коэффициенты матрицы : BT.601
    colour_range : Limited
    Аудио #1
    Идентификатор : 2
    Формат : AC-3
    Формат/Информация : Audio Coding 3
    Расширение режима : CM (complete main)
    Параметр Endianness формата : Big
    Идентификатор кодека : A_AC3
    Продолжительность : 1 ч. 42 м.
    Вид битрейта : Постоянный
    Битрейт : 384 Кбит/сек
    Каналы : 6 каналов
    Расположение каналов : Front: L C R, Side: L R, LFE
    Частота : 48,0 КГц
    Битовая глубина : 16 бит
    Метод сжатия : С потерями
    Размер потока : 281 Мбайт (4%)
    Заголовок : Дубляж - iTunes
    Язык : Russian
    Default : Да
    Forced : Нет
    Аудио #2
    Идентификатор : 3
    Формат : AC-3
    Формат/Информация : Audio Coding 3
    Расширение режима : CM (complete main)
    Параметр Endianness формата : Big
    Идентификатор кодека : A_AC3
    Продолжительность : 1 ч. 42 м.
    Вид битрейта : Постоянный
    Битрейт : 448 Кбит/сек
    Каналы : 6 каналов
    Расположение каналов : Front: L C R, Side: L R, LFE
    Частота : 48,0 КГц
    Битовая глубина : 16 бит
    Метод сжатия : С потерями
    Размер потока : 328 Мбайт (4%)
    Заголовок : english
    Язык : English
    Default : Нет
    Forced : Нет
    Текст #1
    Идентификатор : 4
    Формат : UTF-8
    Идентификатор кодека : S_TEXT/UTF8
    Идентификатор кодека/Информация : UTF-8 Plain Text
    Заголовок : Full
    Язык : Russian
    Default : Нет
    Forced : Нет
    Текст #2
    Идентификатор : 5
    Формат : UTF-8
    Идентификатор кодека : S_TEXT/UTF8
    Идентификатор кодека/Информация : UTF-8 Plain Text
    Язык : English
    Default : Нет
    Forced : Нет
    Меню
    00:00:00.000 : en:Champ McQueen
    00:04:57.255 : en:Storm Front
    00:10:54.988 : en:Crash
    00:13:59.422 : en:Wake-up Call
    00:18:15.344 : en:Phone Call
    00:21:07.641 : en:Modern Training
    00:34:08.880 : en:Deal
    00:37:52.103 : en:Beach
    00:42:44.812 : en:Crazy Eight
    00:49:44.398 : en:Cruz's Dream
    00:53:57.734 : en:Facetime
    00:58:17.702 : en:Olive Branch
    00:59:27.522 : en:Smokey
    01:02:15.940 : en:Hud's Win
    01:06:35.533 : en:It's Over
    01:08:33.109 : en:Old School Training
    01:15:48.126 : en:Florida Arrival
    01:20:57.852 : en:Pit Stop
    01:29:42.418 : en:Victory Lane
    01:32:17.031 : en:Epilogue
    01:34:00.092 : en:End Credits

    Релиз подготовлен 60 - fps



Вы не можете начинать темы
Вы не можете отвечать на сообщения
Вы не можете редактировать свои сообщения
Вы не можете удалять свои сообщения
Вы не можете голосовать в опросах
Вы не можете прикреплять файлы к сообщениям
Вы не можете скачивать файлы