[Цитировать]
kamikkadze

T-Ara - I Know The Feeling (2013) BDRip 1080p | 60 fps

Информация о Клипе:
Исполнители:T-Ara
Название:I Know The Feeling
Год выпуска: 2013 г.
Жанр: Поп
Страна: Корея
Продолжительность: 03.24мин

Файл:
Формат видео: MKV
Качество видео: BDRip 1080p | 60 fps
Видео кодек: H.264
Аудио кодек: AC3
Видео: 1920x1080 | 59.940 fps | 24.6 Mbps
Аудио: AC3 | 2 channels | 48 kHz |384 Кбит/сек

Автор Рипа:Kamikkadze

MediaInfo

Video
ID : 1
Format : AVC
Format/Info : Advanced Video Codec
Format profile : High@L5
Format settings, CABAC : Yes
Format settings, ReFrames : 11 frames
Codec ID : V_MPEG4/ISO/AVC
Duration : 3mn 24s
Bit rate : 24.6 Mbps
Width : 1 920 pixels
Height : 1 080 pixels
Display aspect ratio : 16:9
Frame rate mode : Constant
Frame rate : 59.880 fps
Original frame rate : 59.940 fps
Color space : YUV
Chroma subsampling : 4:2:0
Bit depth : 8 bits
Scan type : Progressive
Bits/(Pixel*Frame) : 0.198
Stream size : 587 MiB (96%)
Title : Rip By Kamikkadze(Специально для проекта 60-fps.org)
Writing library : x264 core 130 r2273 b3065e6
Encoding settings : cabac=1 / ref=11 / deblock=1:-2:-1 / analyse=0x3:0x133 / me=umh / subme=10 / psy=1 / psy_rd=1.00:0.20 / mixed_ref=1 / me_range=24 / chroma_me=1 / trellis=2 / 8x8dct=1 / cqm=0 / deadzone=21,11 / fast_pskip=1 / chroma_qp_offset=-3 / threads=6 / lookahead_threads=1 / sliced_threads=0 / nr=0 / decimate=1 / interlaced=0 / bluray_compat=0 / constrained_intra=0 / bframes=4 / b_pyramid=2 / b_adapt=2 / b_bias=0 / direct=3 / weightb=1 / open_gop=0 / weightp=2 / keyint=250 / keyint_min=25 / scenecut=40 / intra_refresh=0 / rc_lookahead=60 / rc=2pass / mbtree=1 / bitrate=24555 / ratetol=1.0 / qcomp=0.60 / qpmin=0 / qpmax=69 / qpstep=4 / cplxblur=20.0 / qblur=0.5 / ip_ratio=1.40 / aq=1:1.00
Language : English
Default : Yes
Forced : No
Audio
ID : 2
Format : AC-3
Format/Info : Audio Coding 3
Mode extension : CM (complete main)
Format settings, Endianness : Big
Codec ID : A_AC3
Duration : 3mn 24s
Bit rate mode : Constant
Bit rate : 384 Kbps
Channel(s) : 2 channels
Channel positions : Front: L R
Sampling rate : 48.0 KHz
Bit depth : 16 bits
Compression mode : Lossy
Stream size : 9.34 MiB (2%)
Title : Rip By Kamikkadze(Специально для проекта 60-fps.org)
Language : English
Default : Yes
Forced : No
Просьба к переливающим на другие сайты, в оформлении указывайте пожалуйста авторство рипа - Kamikkadze

Релиз подготовлен 60 - fps

[60-fps.org].t607.torrent
Торрент: Зарегистрирован [ 2015-04-23 22:21 ] · E31CE79FEE9ECC2B42D24D76B343E7C49C3970D3

Скачать .torrent

Скачать

12 KB

Статус: проверено
Скачан: 12 раз
Поблагодарили:
Размер: 608 MB
 
Похожие Темы
 
Показать сообщения:    

Текущее время: 25-Фев 18:53

Часовой пояс: UTC + 3


Вы не можете начинать темы
Вы не можете отвечать на сообщения
Вы не можете редактировать свои сообщения
Вы не можете удалять свои сообщения
Вы не можете голосовать в опросах
Вы не можете прикреплять файлы к сообщениям
Вы можете скачивать файлы