[Цитировать]
kamikkadze

T-Ara - №9 LG Promo (2015) UHDRip 1080p | 60 fps

Информация о Клипе:
Исполнители:T-Ara
Название:Number Nine
Год выпуска: 2015 г.
Жанр: Поп
Продолжительность: 3 м. 59 с.

Файл:
Формат видео: MKV
Качество видео: UHDRip 1080p | 60 fps
Видео кодек: H.264
Аудио кодек: AC3
Видео: 1920x1080 | 59.940 fps | 19,0 Мбит/сек
Аудио: AC3 | 2 channels | 48 kHz |448 Кбит/сек

Автор Рипа:Kamikkadze

MediaInfo

Общее
Уникальный идентификатор : 230702880277833715241348851381897993570 (0xAD8FC22F91AE4CD1A249AB6910731D62)
Полное имя : C:\Users\Kamikkadze\Desktop\Клипы\на 60\T-ARA - N9 UHDRip.mkv
Формат : Matroska
Версия формата : Version 4 / Version 2
Размер файла : 556 Мбайт
Продолжительность : 3 м. 59 с.
Общий поток : 19,5 Мбит/сек
Название фильма : Rip By Kamikkadze
Дата кодирования : UTC 2015-04-25 16:27:44
Программа кодирования : mkvmerge v7.8.0 ('River Man') 64bit built on Mar 27 2015 16:31:37
Библиотека кодирования : libebml v1.3.1 + libmatroska v1.4.2
DURATION : 00:03:59.168000000
NUMBER_OF_FRAMES : 7474
NUMBER_OF_BYTES : 13393408
_STATISTICS_WRITING_APP : mkvmerge v7.8.0 ('River Man') 64bit built on Mar 27 2015 16:31:37
_STATISTICS_WRITING_DATE_UTC : 2015-04-25 16:27:44
_STATISTICS_TAGS : BPS DURATION NUMBER_OF_FRAMES NUMBER_OF_BYTES
Видео
Идентификатор : 1
Формат : AVC
Формат/Информация : Advanced Video Codec
Профиль формата : High@L4.2
Параметр CABAC формата : Да
Параметр ReFrames формата : 8 кадров
Идентификатор кодека : V_MPEG4/ISO/AVC
Продолжительность : 3 м. 59 с.
Битрейт : 19,0 Мбит/сек
Ширина : 1920 пикселей
Высота : 1080 пикселей
Соотношение сторон : 16:9
Режим частоты кадров : Постоянный
Частота кадров : 59,880 кадров/сек
Частота кадров в оригинале : 59,940 кадров/сек
Цветовое пространство : YUV
Субдискретизация насыщенности : 4:2:0
Битовая глубина : 8 бит
Тип развёртки : Прогрессивная
Бит/(Пиксели*Кадры) : 0.153
Размер потока : 532 Мбайт (96%)
Заголовок : Rip By Kamikkadze(Специально для проекта 60-fps.org)
Библиотека кодирования : x264 core 130 r2273 b3065e6
Настройки программы : cabac=1 / ref=8 / deblock=1:-1:-1 / analyse=0x3:0x133 / me=umh / subme=7 / psy=1 / psy_rd=1.00:0.10 / mixed_ref=1 / me_range=16 / chroma_me=1 / trellis=2 / 8x8dct=1 / cqm=0 / deadzone=21,11 / fast_pskip=0 / chroma_qp_offset=-3 / threads=6 / lookahead_threads=1 / sliced_threads=0 / nr=0 / decimate=1 / interlaced=0 / bluray_compat=0 / constrained_intra=0 / bframes=3 / b_pyramid=2 / b_adapt=2 / b_bias=0 / direct=3 / weightb=1 / open_gop=0 / weightp=2 / keyint=250 / keyint_min=25 / scenecut=40 / intra_refresh=0 / rc_lookahead=50 / rc=2pass / mbtree=1 / bitrate=19000 / ratetol=1.0 / qcomp=0.60 / qpmin=0 / qpmax=69 / qpstep=4 / cplxblur=20.0 / qblur=0.5 / ip_ratio=1.40 / aq=1:1.00
Язык : English
Default : Да
Forced : Нет
Аудио
Идентификатор : 2
Формат : AC-3
Формат/Информация : Audio Coding 3
Расширение режима : CM (complete main)
Параметр Endianness формата : Big
Идентификатор кодека : A_AC3
Продолжительность : 3 м. 59 с.
Вид битрейта : Постоянный
Битрейт : 448 Кбит/сек
Каналы : 2 канала
Расположение каналов : Front: L R
Частота : 48,0 КГц
Битовая глубина : 16 бит
Метод сжатия : С потерями
Размер потока : 12,8 Мбайт (2%)
Заголовок : Rip By Kamikkadze(Специально для проекта 60-fps.org)
Язык : English
Default : Да
Forced : Нет
Просьба к переливающим на другие сайты, в оформлении указывайте пожалуйста авторство рипа - Kamikkadze

Релиз подготовлен 60 - fps

 
Показать сообщения:    

Текущее время: 06-Дек 15:11

Часовой пояс: UTC + 3


Вы не можете начинать темы
Вы не можете отвечать на сообщения
Вы не можете редактировать свои сообщения
Вы не можете удалять свои сообщения
Вы не можете голосовать в опросах
Вы не можете прикреплять файлы к сообщениям
Вы не можете скачивать файлы