Агент Ева / Ava (2020) BDRip 1080p | 60 fps Пятый элемент / The Fifth Element (1997) BDRip 1080p | 60 fps Властелин колец: Трилогия / The Lord of the Rings: Trilogy (2001-2003) BDRip-AVC | Extended Cut | 60 fps Форпост / The Outpost (2020) BDRip 1080p | 60 fps Охота / The Hunt (2020) BDRip 1080p | 60 fps Морские паразиты / Sea Fever (2019) BDRip 1080p | 60 fps Поезд смерти / D-Railed (2018) BDRip 1080p | 60 fps Принц Персии: Пески времени / Prince of Persia: The Sands of Time (2010) BDRip 1080p | 60 fps
  1. Longevity:
    4 years 6 months
    Posts:
    1575
    Gender:
    Male
    Фильм «Да придёт царствие твоё, да исполнится воля твоя» Фильм- Информация
    Название: Святые из Бундока
    Оригинальное название: The Boondock Saints
    Год выхода: 1999
    Жанр: боевик, триллер, драма, комедия, криминал
    Режиссер: Трой Даффи
    Сценарий: Трой Даффи
    Продюсер: Крис Бринкер, Эли Самаха, Ллойд Сеган
    В ролях: Уиллем Дефо,Шон Патрик Флэнери,Норман Ридус,Дэвид Делла Рокко,Билли Коннолли,Дэвид Ферри,Брайан Махони,Боб Марли,Ричард Фицпатрик,Уильям Янг
    --Сюжет:
    Чего только не бывает на свете! Два обычных ирландских парня, братья Коннор и Мерфи, преспокойно жили и работали в своем родном Бостоне, пока в один прекрасный день на них не снизошло озарение: сам Бог послал их на землю с особой миссией, наделив святой силой, чтобы очистить мир от зла. И братья взялись за дело со всей серьезностью, присущей ирландцам…
    Вскоре местную мафию охватывает настоящая паника — ведь методы «святых» не отличаются особой гуманностью, зато оказались очень эффективными — кровь полилась рекой!
    Массовый отстрел мафиози не смог не привлечь внимания ФБР. Спецагент Пол Смекер, ведущий расследование, попадает в непростую ситуацию: служебный долг требует пресечь деятельность «святых братьев», однако в душе он не только сочувствует им, но даже готов присоединиться к исполнителям «священной» миссии…
    -- Страна: США, Канада
    Продолжительность: 01:48:26

    Файл
    Кодек: MPEG4/ISO/AVC H.264/[email protected]
    Формат: MKV
    Качество: BDRip 720p | 60 fps
    Видео: 1280 x 536 (2.388) | 59.940 fps | 4336 Кбит/сек
    Аудио 1: AC-3| 5.1 | 48 kHz | 384 Кбит/сек | 16 bit | Двухголосный,закадровый "R5"
    Аудио 2: AC-3| 5.1 | 48 kHz | 448 Кбит/сек | 16 bit | "ГОБЛИН"
    Субтитры:

    MedifInfo

    Видео
    Идентификатор : 1
    Формат : AVC
    Формат/Информация : Advanced Video Codec
    Профиль формата : [email protected]
    Параметр CABAC формата : Да
    Параметр ReFrames формата : 4 кадра
    Идентификатор кодека : V_MPEG4/ISO/AVC
    Продолжительность : 1 ч. 48 м.
    Битрейт : 4428 Кбит/сек
    Ширина : 1280 пикселей
    Высота : 536 пикселей
    Соотношение сторон : 2,40:1
    Режим частоты кадров : Постоянный
    Частота кадров : 59,940 (59940/1000) кадров/сек
    Цветовое пространство : YUV
    Субдискретизация насыщенности : 4:2:0
    Битовая глубина : 8 бит
    Тип развёртки : Прогрессивная
    Бит/(Пиксели*Кадры) : 0.108
    Размер потока : 3,35 Гбайт (84%)
    Заголовок : The Boondock Saints (1999) BDRip 720p (60 Fps).mkv
    Библиотека кодирования : x264 core 130 r2273 b3065e6
    Настройки программы : cabac=1 / ref=4 / deblock=1:-3:-3 / analyse=0x3:0x113 / me=umh / subme=8 / psy=1 / psy_rd=1.00:0.10 / mixed_ref=1 / me_range=24 / chroma_me=1 / trellis=2 / 8x8dct=1 / cqm=0 / deadzone=21,11 / fast_pskip=1 / chroma_qp_offset=-3 / threads=3 / lookahead_threads=1 / sliced_threads=0 / nr=0 / decimate=1 / interlaced=0 / bluray_compat=0 / constrained_intra=0 / bframes=4 / b_pyramid=2 / b_adapt=2 / b_bias=0 / direct=1 / weightb=1 / open_gop=0 / weightp=2 / keyint=250 / keyint_min=25 / scenecut=40 / intra_refresh=0 / rc_lookahead=50 / rc=2pass / mbtree=1 / crf=16.0 / qcomp=0.60 / qpmin=0 / qpmax=69 / qpstep=4 / ip_ratio=1.40 / aq=1:1.00
    Язык : English
    Default : Да
    Forced : Нет
    Аудио #1
    Идентификатор : 2
    Формат : AC-3
    Формат/Информация : Audio Coding 3
    Расширение режима : CM (complete main)
    Параметр Endianness формата : Big
    Идентификатор кодека : A_AC3
    Продолжительность : 1 ч. 48 м.
    Вид битрейта : Постоянный
    Битрейт : 384 Кбит/сек
    Каналы : 6 каналов
    Расположение каналов : Front: L C R, Side: L R, LFE
    Частота : 48,0 КГц
    Частота кадров : 31,250 кадров/сек (1536 spf)
    Битовая глубина : 16 бит
    Метод сжатия : С потерями
    Размер потока : 298 Мбайт (7%)
    Заголовок : MVO (R5)
    Язык : Russian
    Default : Да
    Forced : Нет
    Аудио #2
    Идентификатор : 5
    Формат : AC-3
    Формат/Информация : Audio Coding 3
    Расширение режима : CM (complete main)
    Параметр Endianness формата : Big
    Идентификатор кодека : A_AC3
    Продолжительность : 1 ч. 48 м.
    Вид битрейта : Постоянный
    Битрейт : 448 Кбит/сек
    Каналы : 6 каналов
    Расположение каналов : Front: L C R, Side: L R, LFE
    Частота : 48,0 КГц
    Частота кадров : 31,250 кадров/сек (1536 spf)
    Битовая глубина : 16 бит
    Метод сжатия : С потерями
    Размер потока : 348 Мбайт (9%)
    Default : Нет
    Forced : Нет
    Текст #1
    Идентификатор : 3
    Формат : UTF-8
    Идентификатор кодека : S_TEXT/UTF8
    Идентификатор кодека/Информация : UTF-8 Plain Text
    Продолжительность : 1 ч. 45 м.
    Битрейт : 94 бит/сек
    Count of elements : 1182
    Размер потока : 72,8 Кбайт (0%)
    Заголовок : R5
    Язык : Russian
    Default : Нет
    Forced : Нет
    Текст #2
    Идентификатор : 4
    Формат : UTF-8
    Идентификатор кодека : S_TEXT/UTF8
    Идентификатор кодека/Информация : UTF-8 Plain Text
    Продолжительность : 1 ч. 45 м.
    Битрейт : 104 бит/сек
    Count of elements : 1369
    Размер потока : 80,5 Кбайт (0%)
    Заголовок : Total DVD
    Язык : Russian
    Default : Нет
    Forced : Нет
    Текст #3
    Идентификатор : 6
    Формат : UTF-8
    Идентификатор кодека : S_TEXT/UTF8
    Идентификатор кодека/Информация : UTF-8 Plain Text
    Продолжительность : 1 ч. 45 м.
    Битрейт : 108 бит/сек
    Count of elements : 1553
    Размер потока : 83,3 Кбайт (0%)
    Default : Да
    Forced : Нет
    Меню
    00:00:00.000 : en:Main Credits/Indifference of Good Men
    00:05:33.374 : en:St. Patty's Day
    00:08:37.141 : en:Classic Forensics
    00:15:21.295 : en:Need a Favor
    00:19:22.494 : en:Just a Bar Fight
    00:22:28.680 : en:Feed the Dogs
    00:26:34.342 : en:Call to Duty
    00:33:09.862 : en:Suit Up
    00:35:58.573 : en:Pay the Toll
    00:40:21.919 : en:Dropping In
    00:44:50.896 : en:The Funny Man
    00:49:43.814 : en:Recruitment
    00:54:08.495 : en:Closure
    00:59:01.246 : en:Strangely Comfortable
    01:02:58.608 : en:Yard Sale
    01:07:15.698 : en:A Monster
    01:11:27.491 : en:Party Crashers
    01:17:07.122 : en:Armageddon
    01:21:29.092 : en:Liability
    01:26:09.914 : en:Advice
    01:30:54.407 : en:Saint Down
    01:33:29.979 : en:Entertainment
    01:38:53.344 : en:Justice
    01:43:08.390 : en:Saint Hunt/End Credits


    Last edited by Талямба on 2017-10-17 12:52; edited 2 times in total
  2. Longevity:
    4 years 6 months
    Posts:
    1575
    Gender:
    Male
    Хитренький ПО МНОГОЧИСЛЕННЫМ ПРОСЬБАМ... ! Подмигиваю
    17-Oct-2017 03:29 (after 2 minutes)


You cannot post new topics in this forum
You cannot reply to topics in this forum
You cannot edit your posts in this forum
You cannot delete your posts in this forum
You cannot vote in polls in this forum
You cannot attach files in this forum
You cannot download files in this forum