Агент Ева / Ava (2020) BDRip 1080p | 60 fps Властелин колец: Трилогия / The Lord of the Rings: Trilogy (2001-2003) BDRip-AVC | Extended Cut | 60 fps Пятый элемент / The Fifth Element (1997) BDRip 1080p | 60 fps Форпост / The Outpost (2020) BDRip 1080p | 60 fps Поезд смерти / D-Railed (2018) BDRip 1080p | 60 fps Охота / The Hunt (2020) BDRip 1080p | 60 fps Вивариум / Vivarium (2019) BDRip 720p | 60 fps Ультрафиолет / Ultraviolet (2006) BDRip 1080p | 60 fps
  1. Longevity:
    4 years 6 months
    Posts:
    1575
    Gender:
    Male
    Фильм «---» Фильм- Информация
    Название: Святые из Бундока 2: День всех святых
    Оригинальное название: The Boondock Saints II: All Saints Day
    Год выхода: 2009
    Жанр: боевик, триллер, драма, комедия, криминал
    Режиссер: Трой Даффи
    Сценарий: Трой Даффи, Тейлор Даффи
    Продюсер: Крис Бринкер, Дон Кармоди, Роберт Н. Фрид
    В ролях: Шон Патрик Флэнери,Норман Ридус,Билли Коннолли,Клифтон Коллинз мл.,Джули Бенц,Боб Марли,Брайан Махони,Дэвид Ферри,Дэвид Делла Рокко,Питер Фонда
    --Сюжет:
    Последние 8 лет братья жили вместе с отцом на ферме в глубинке Ирландии. Однажды их дядя рассказывает им о слухах, что они причастны к убийству католического священника Бостона. Парни возвращаются в Бостон, чтобы очистить свою испорченную репутацию, и найти людей, подставивших их.-- Страна: США
    Продолжительность: 01:57:31

    Файл
    Кодек: MPEG4/ISO/AVC H.264/[email protected]
    Формат: MKV
    Качество: BDRip 720p | 60 fps
    Видео: 1280 x 544 (2.353) | 59.940 fps | 4265 Кбит/сек
    Аудио 1: AC-3| 5.1 | 48 kHz | 384 Кбит/сек | 16 bit | Дубляж
    Субтитры:

    MedifInfo

    Видео
    Идентификатор : 1
    Формат : AVC
    Формат/Информация : Advanced Video Codec
    Профиль формата : [email protected]
    Параметр CABAC формата : Да
    Параметр ReFrames формата : 4 кадра
    Идентификатор кодека : V_MPEG4/ISO/AVC
    Продолжительность : 1 ч. 57 м.
    Битрейт : 4265 Кбит/сек
    Ширина : 1280 пикселей
    Высота : 544 пикселя
    Соотношение сторон : 2,35:1
    Режим частоты кадров : Постоянный
    Частота кадров : 59,940 кадров/сек
    Цветовое пространство : YUV
    Субдискретизация насыщенности : 4:2:0
    Битовая глубина : 8 бит
    Тип развёртки : Прогрессивная
    Бит/(Пиксели*Кадры) : 0.102
    Размер потока : 3,42 Гбайт (90%)
    Заголовок : The Boondock Saints II: All Saints Day (2009) (60 Fps).mkv
    Библиотека кодирования : x264 core 130 r2273 b3065e6
    Настройки программы : cabac=1 / ref=4 / deblock=1:-3:-3 / analyse=0x3:0x113 / me=umh / subme=8 / psy=1 / psy_rd=1.00:0.00 / mixed_ref=1 / me_range=24 / chroma_me=1 / trellis=2 / 8x8dct=1 / cqm=0 / deadzone=21,11 / fast_pskip=1 / chroma_qp_offset=-2 / threads=3 / lookahead_threads=1 / sliced_threads=0 / nr=0 / decimate=1 / interlaced=0 / bluray_compat=0 / constrained_intra=0 / bframes=4 / b_pyramid=2 / b_adapt=2 / b_bias=0 / direct=3 / weightb=1 / open_gop=0 / weightp=2 / keyint=250 / keyint_min=25 / scenecut=40 / intra_refresh=0 / rc_lookahead=50 / rc=2pass / mbtree=1 / bitrate=4265 / ratetol=1.0 / qcomp=0.60 / qpmin=0 / qpmax=69 / qpstep=4 / cplxblur=20.0 / qblur=0.5 / ip_ratio=1.40 / aq=1:1.00
    Язык : English
    Default : Да
    Forced : Нет
    Аудио
    Идентификатор : 2
    Формат : AC-3
    Формат/Информация : Audio Coding 3
    Расширение режима : CM (complete main)
    Параметр Endianness формата : Big
    Идентификатор кодека : A_AC3
    Продолжительность : 1 ч. 57 м.
    Вид битрейта : Постоянный
    Битрейт : 384 Кбит/сек
    Каналы : 6 каналов
    Расположение каналов : Front: L C R, Side: L R, LFE
    Частота : 48,0 КГц
    Частота кадров : 31,250 кадров/сек (1536 spf)
    Битовая глубина : 16 бит
    Метод сжатия : С потерями
    Размер потока : 323 Мбайт (8%)
    Заголовок : (Rus) R5
    Язык : Russian
    Default : Да
    Forced : Нет
    Текст
    Идентификатор : 3
    Формат : UTF-8
    Идентификатор кодека : S_TEXT/UTF8
    Идентификатор кодека/Информация : UTF-8 Plain Text
    Заголовок : Rus
    Язык : Russian
    Default : Нет
    Forced : Нет
    Меню
    00:00:00.000 : en:00:00:00.000
    00:06:14.374 : en:00:06:14.374
    00:16:23.316 : en:00:16:23.316
    00:22:15.960 : en:00:22:15.960
    00:30:19.234 : en:00:30:19.234
    00:36:27.143 : en:00:36:27.143
    00:45:17.214 : en:00:45:17.214
    00:48:10.846 : en:00:48:10.846
    00:55:34.706 : en:00:55:34.706
    01:04:47.050 : en:01:04:47.050
    01:11:13.936 : en:01:11:13.936
    01:18:22.656 : en:01:18:22.656
    01:23:09.151 : en:01:23:09.151
    01:29:31.157 : en:01:29:31.157
    01:35:46.157 : en:01:35:46.157
    01:43:06.389 : en:01:43:06.389
  2. Longevity:
    5 years 6 months
    Posts:
    149
    Gender:
    Male
    Первую часть еще бы, а то со второй начинать как-то не хочется Удивляюсь
    Но, спасибо, жду первую Улыбаюсь
    16-Oct-2017 08:59 (after 6 hours)
  3. Longevity:
    4 years 6 months
    Posts:
    1575
    Gender:
    Male
    ENIGMA, первую часть есть,но исходник не могу скачать... Грущу
    16-Oct-2017 12:26 (after 3 hours)
  4. Longevity:
    3 years 6 months
    Posts:
    1
    Gender:
    Unknown
    еще б дорожку с озвучкой Гоблина, для реального восприятия всего колорита.. в цензурной версии не совсем корректно переведено...
    16-Oct-2017 14:17 (after 1 hour 50 minutes)
  5. Longevity:
    4 years 6 months
    Posts:
    1575
    Gender:
    Male
  6. Longevity:
    3 years 6 months
    Posts:
    5
    Gender:
    Male
    Тут какая именно озвучка? Которая без цензуры?
    29-Jan-2018 17:19 (after 3 months 12 days)
  7. Longevity:
    4 years 6 months
    Posts:
    1575
    Gender:
    Male
    9264Тут какая именно озвучка? Которая без цензуры?
    первая часть с озвучкой гоблина,эта версия без гоблина...
    29-Jan-2018 17:42 (after 23 minutes)
  8. Longevity:
    3 years 6 months
    Posts:
    5
    Gender:
    Male
    9265
    9264Тут какая именно озвучка? Которая без цензуры?
    первая часть с озвучкой гоблина,эта версия без гоблина...
    Видел этот фильм без цензуры, но могу найти ту озвучку не могу... вроде двухголосый был
    15-Feb-2018 22:47 (after 17 days)


You cannot post new topics in this forum
You cannot reply to topics in this forum
You cannot edit your posts in this forum
You cannot delete your posts in this forum
You cannot vote in polls in this forum
You cannot attach files in this forum
You cannot download files in this forum