«Ни любви, ни тоски, ни жалости»
Год выпуска: 2006 г.
Жанр: боевик, драма, военный
Страна: Россия
Режиссер: Александр Атанесян
Продолжительность: 01:37:14
Перевод: Не требуется
В ролях: Андрей Панин (Подполковник Вишневецкий), Андрей Краско (Дядя Паша), Александр Головин (Кот), Ростислав Бершауэр (Доктор), Сергей Рыченков (Тяпа), А. Бобров (Инструктор), Олег Буганов (Принц), Кирилл Емельянов (Студер)

Описание: 1943 год. Полковник Вишневецкий получает правительственное задание: подготовить диверсионную группу бойцов-смертников, которая должна блокировать действия отборных немецких соединений «Эдельвейс». Группа набирается из отчаянных мальчишек 14-15 лет, сирот, которых никто не будет искать.Подростков отправляют в потайной горный лагерь, где они проходят специальную подготовку. Им предназначено уничтожить фашистскую военную базу и погибнуть, поскольку «носители особо секретной информации» не должны оставаться в живых.
Формат видео: MKV
Качество видео: BDRip 1080p | 60fps
Видео кодек: H.264
Аудио кодек: AC3
Видео: 1920x1080 (16:9), 60.000 fps, AVC, 34.4 Mbps
Аудио: AC3, 640 Kbps, 48.0 KHz, 6 ch

Релиз by

Знаете ли Вы, что...

Фильм снят по одноименной повести Владимира Кунина.
· Выбор постера фильма был произведен по результатам голосования посетителей нескольких веб-сайтов кинематографической тематики.
· Съёмки фильма проходили в Армении.
· На церемонии вручения кинонаград российского филиала MTV, картина Александра Атанесяна «Сволочи» стала лучшей кинокартиной. Однако вышедший вручать премию Владимир Меньшов, открыв конверт и увидев название победителя, бросил пакет на сцену: «Я не буду вручать эту премию фильму, который позорит мою страну. Пускай этот приз вручает Памела Андерсон», — заявил он.
· Часть расходов на производство фильма — около $700 000 — оплатило Федеральное агентство по культуре и кинематографии, возглавляемое в то время Михаилом Швыдким.
· Фильм «Сволочи», наряду с «Родина или смерть» (2007) и «Кукушкины дети» (1991), является одим из трёх художественных фильмов, снятых на тему «советские дети-диверсанты в ВОВ».
· Центр общественных связей ФСБ России сообщает, что в архивах ФСБ России и Комитета национальной безопасности Республики Казахстан каких-либо материалов, подтверждающих существование в системе органов НКВД-НКГБ «детских диверсионных школ», аналогичных описанным в повести «Сволочи», не имеется. Архивных документов о спецоперациях по заброске диверсионных групп из числа подростков советскими органами госбезопасности в тыл противника в годы Великой Отечественной войны тоже нет.
· ФСБ России располагает документальными материалами о практике использования детей в диверсионных целях спецслужбами фашистской Германии. В ФСБ России хранятся документы о немецкой школе по подготовке диверсантов из подростков, организованной Абверкомандой-203 в июле 1943 года в населенном пункте Гемфурт возле города Кассель (Германия). Согласно архивным материалам, для обучения в школе сотрудники абвера производили вербовку детей, находившихся на оккупированной территории в детских домах в городах Орша и Смоленск.

Отчёт MediaInfo

General
Complete name : Сволочи 60fps.mkv
Format : Matroska
File size : 23.8 GiB
Duration : 1h 37mn
Overall bit rate : 35.0 Mbps
Movie name : Сволочи.2006.1080p.x264.bdgoldgroup
Encoded date : UTC 2015-03-29 04:10:04
Writing application : mkvmerge v7.7.0 ('Six Voices') 64bit built on Feb 28 2015 23:39:33
Writing library : libebml v1.3.1 + libmatroska v1.4.2
Cover : Yes / Yes
Video
ID : 1
Format : AVC
Format/Info : Advanced Video Codec
Format profile : High@L4.1
Format settings, CABAC : Yes
Format settings, ReFrames : 4 frames
Muxing mode : Container profile=Unknown@4.1
Codec ID : V_MPEG4/ISO/AVC
Duration : 1h 37mn
Bit rate : 34.4 Mbps
Width : 1 920 pixels
Height : 1 080 pixels
Display aspect ratio : 16:9
Frame rate : 60.000 fps
Color space : YUV
Chroma subsampling : 4:2:0
Bit depth : 8 bits
Scan type : Progressive
Bits/(Pixel*Frame) : 0.276
Stream size : 22.9 GiB (96%)
Writing library : x264 core 130 r2273 b3065e6
Encoding settings : cabac=1 / ref=4 / deblock=1:0:0 / analyse=0x3:0x113 / me=umh / subme=8 / psy=1 / psy_rd=1.00:0.10 / mixed_ref=1 / me_range=24 / chroma_me=0 / trellis=2 / 8x8dct=1 / cqm=0 / deadzone=21,11 / fast_pskip=1 / chroma_qp_offset=-3 / threads=12 / lookahead_threads=3 / sliced_threads=0 / nr=0 / decimate=0 / interlaced=0 / bluray_compat=0 / constrained_intra=0 / bframes=5 / b_pyramid=2 / b_adapt=2 / b_bias=0 / direct=3 / weightb=1 / open_gop=0 / weightp=2 / keyint=250 / keyint_min=25 / scenecut=40 / intra_refresh=0 / rc=2pass / mbtree=0 / bitrate=34354 / ratetol=1.0 / qcomp=0.60 / qpmin=0 / qpmax=69 / qpstep=4 / cplxblur=20.0 / qblur=0.5 / ip_ratio=1.40 / pb_ratio=1.30 / aq=1:0.90
Audio
ID : 2
Format : AC-3
Format/Info : Audio Coding 3
Mode extension : CM (complete main)
Codec ID : A_AC3
Duration : 1h 37mn
Bit rate mode : Constant
Bit rate : 640 Kbps
Channel(s) : 6 channels
Channel positions : Front: L C R, Side: L R, LFE
Sampling rate : 48.0 KHz
Bit depth : 16 bits
Stream size : 445 MiB (2%)
Title : AC3 5.1 @ 640 kbps
Language : Russian

Скриншоты

[Цитировать]
shpkost

Спасибо!!!

[Цитировать]
BOT2

Пожалуйста

[Цитировать]
tugaew

спасибо!
 
Показать сообщения:    

Текущее время: 29-Май 01:20

Часовой пояс: UTC + 3


Вы не можете начинать темы
Вы не можете отвечать на сообщения
Вы не можете редактировать свои сообщения
Вы не можете удалять свои сообщения
Вы не можете голосовать в опросах
Вы не можете прикреплять файлы к сообщениям
Вы не можете скачивать файлы