[Цитировать]
Kryl

«Based on the incredible true story»- Информация
Название: Свободный штат Джонса
Оригинальное название: Free State of Jones
Год выхода: 2016
Жанр: Боевик, драма, военный, биография, история
Режиссер: Гэри Росс
Сценарий: Гэри Росс, Леонард Хартман
Продюсер: Джон Килик, Гэри Росс, Скотт Стубер
В ролях: Мэттью МакКонахи, Гугу Мбата-Роу, Махершала Али, Кери Расселл, Кристофер Берри, Шон Бриджерс, Джейкоб Лофленд, Томас Мерфи, Билл Тангради, Брайан Франклин
--Сюжет:
События фильма разворачиваются во время гражданской войны в США. После участия в битве при Коринфе Ньютон Найт — бедный фермер из Миссисипи возглавляет группу дезертиров из армии Конфедерации, выступающих за отмену рабства. Вместе они обустраиваются в округе Джонс, и начинают борьбу против сил Конфедерации.- Страна: США
Продолжительность: 02:19:55

Файл
Кодек: MPEG4/ISO/AVC/H.264
Формат: MKV
Качество: BDRip 1080p | 60 fps
Видео: 1920 x 1036 (1.853) | 59.940 fps | 25.0 Мбит/сек
Аудио 1: AC3 | 5.1 | 48 kHz | 448 kbps | 16 bit | Любительский одноголосый закадровый - Solod |
Аудио 2: AC3 | 5.1 | 48 kHz | 640 kbps | 16 bit | ENG |
Субтитры: Русские, Eng

MedifInfo

Видео
Идентификатор : 1
Формат : AVC
Формат/Информация : Advanced Video Codec
Профиль формата : High@L4.1
Параметр CABAC формата : Да
Параметр ReFrames формата : 4 кадра
Идентификатор кодека : V_MPEG4/ISO/AVC
Продолжительность : 2 ч. 19 м.
Битрейт : 25,0 Мбит/сек
Ширина : 1920 пикселей
Высота : 1036 пикселей
Соотношение сторон : 1,85:1
Режим частоты кадров : Постоянный
Частота кадров : 59,880 кадров/сек
Частота кадров в оригинале : 59,940 кадров/сек
Цветовое пространство : YUV
Субдискретизация насыщенности : 4:2:0
Битовая глубина : 8 бит
Тип развёртки : Прогрессивная
Бит/(Пиксели*Кадры) : 0.210
Размер потока : 23,9 Гбайт (94%)
Заголовок : www.60-fps.org
Библиотека кодирования : x264 core 148 r2638 7599210
Настройки программы : cabac=1 / ref=4 / deblock=1:-3:-3 / analyse=0x3:0x113 / me=umh / subme=8 / psy=1 / psy_rd=1.00:0.25 / mixed_ref=1 / me_range=32 / chroma_me=1 / trellis=1 / 8x8dct=1 / cqm=0 / deadzone=6,6 / fast_pskip=1 / chroma_qp_offset=-4 / threads=12 / lookahead_threads=2 / sliced_threads=0 / nr=0 / decimate=0 / interlaced=0 / bluray_compat=0 / constrained_intra=0 / bframes=3 / b_pyramid=2 / b_adapt=2 / b_bias=0 / direct=3 / weightb=1 / open_gop=0 / weightp=2 / keyint=599 / keyint_min=59 / scenecut=40 / intra_refresh=0 / rc_lookahead=50 / rc=2pass / mbtree=1 / bitrate=24999 / ratetol=1.0 / qcomp=0.80 / qpmin=0 / qpmax=69 / qpstep=4 / cplxblur=20.0 / qblur=0.5 / vbv_maxrate=62500 / vbv_bufsize=78125 / nal_hrd=none / filler=0 / ip_ratio=1.10 / aq=1:0.50
Default : Да
Forced : Нет
Аудио #1
Идентификатор : 2
Формат : AC-3
Формат/Информация : Audio Coding 3
Расширение режима : CM (complete main)
Параметр Endianness формата : Big
Идентификатор кодека : A_AC3
Продолжительность : 2 ч. 19 м.
Вид битрейта : Постоянный
Битрейт : 448 Кбит/сек
Каналы : 6 каналов
Расположение каналов : Front: L C R, Side: L R, LFE
Частота : 48,0 КГц
Битовая глубина : 16 бит
Метод сжатия : С потерями
Размер потока : 448 Мбайт (2%)
Заголовок : Любительский одноголосый закадровый - Solod
Язык : Russian
Default : Да
Forced : Нет
Аудио #2
Идентификатор : 3
Формат : AC-3
Формат/Информация : Audio Coding 3
Расширение режима : CM (complete main)
Параметр Endianness формата : Big
Идентификатор кодека : A_AC3
Продолжительность : 2 ч. 19 м.
Вид битрейта : Постоянный
Битрейт : 640 Кбит/сек
Каналы : 6 каналов
Расположение каналов : Front: L C R, Side: L R, LFE
Частота : 48,0 КГц
Битовая глубина : 16 бит
Метод сжатия : С потерями
Размер потока : 641 Мбайт (2%)
Заголовок : eng
Язык : English
Default : Нет
Forced : Нет
Текст #1
Идентификатор : 4
Формат : UTF-8
Идентификатор кодека : S_TEXT/UTF8
Идентификатор кодека/Информация : UTF-8 Plain Text
Заголовок : Full
Язык : Russian
Default : Нет
Forced : Нет
Текст #2
Идентификатор : 5
Формат : UTF-8
Идентификатор кодека : S_TEXT/UTF8
Идентификатор кодека/Информация : UTF-8 Plain Text
Заголовок : Full
Язык : English
Default : Нет
Forced : Нет
Меню
00:00:00.000 : en:00:00:00.000
00:08:19.499 : en:00:08:19.499
00:13:55.835 : en:00:13:55.835
00:22:14.250 : en:00:22:14.250
00:30:56.313 : en:00:30:56.313
00:37:39.924 : en:00:37:39.924
00:46:02.635 : en:00:46:02.635
00:49:49.195 : en:00:49:49.195
00:56:08.615 : en:00:56:08.615
01:05:06.027 : en:01:05:06.027
01:13:32.199 : en:01:13:32.199
01:19:58.752 : en:01:19:58.752
01:30:22.667 : en:01:30:22.667
01:36:43.172 : en:01:36:43.172
01:42:49.747 : en:01:42:49.747
01:50:23.492 : en:01:50:23.492
01:55:44.729 : en:01:55:44.729
02:02:43.731 : en:02:02:43.731
02:06:56.526 : en:02:06:56.526
02:13:11.942 : en:02:13:11.942

Релиз подготовлен 60 - fps



Последний раз редактировалось: Kryl (2017-05-15 20:15), всего редактировалось 1 раз

[Цитировать]
Талямба

не могу докачать,96,6% и стопорнулось... Грущу

[Цитировать]
Kryl

7133не могу докачать,96,6% и стопорнулось... Грущу
стою на раздаче .

[Цитировать]
rembo1410

спасибо раздающему!люблю этого актера Мэттью МакКонахи.но от фильма ожидал большего! начало .середина захватывает а концовка минут так 35 ни о чем! Грущу
 
Показать сообщения:    

Текущее время: 24-Сен 22:11

Часовой пояс: UTC + 3


Вы не можете начинать темы
Вы не можете отвечать на сообщения
Вы не можете редактировать свои сообщения
Вы не можете удалять свои сообщения
Вы не можете голосовать в опросах
Вы не можете прикреплять файлы к сообщениям
Вы не можете скачивать файлы