[Цитировать]
Kryl

«Небесная справедливость в действии»- Информация
Название: Сверхъестественное
Оригинальное название: Supernatural
Год выхода: 2007
Жанр: ужасы, фэнтези, триллер, драма, детектив
Режиссер: Роберт Сингер, Филип Сгриккиа, Ким Мэннерс
Сценарий: Эрик Крипке, Сера Гэмбл, Эндрю Дабб
Продюсер: Филип Сгриккиа, Роберт Сингер, Тодд Филип Аронье
В ролях: Джаред Падалеки, Дженсен Эклс, Миша Коллинз, Марк Шеппард, Тамо Пеникетт, Кёртис Армстронг, Элейна Хаффман, Осрик Чау, Эрика Кэрролл, Адам Харрингтон, Ким Родс, Джим Бивер, А. Дж. Баккли, Фелиция Дэй
--Сюжет:
Сериал рассказывает о приключениях братьев Сэма и Дина Винчестеров, которые путешествуют по Соединённым Штатам на чёрном автомобиле Chevrolet Impala 1967 года, расследуют паранормальные явления, многие из которых основаны на американских городских легендах и фольклоре, и сражаются с порождениями зла, такими как демоны и призраки.- - Страна: США
Продолжительность: 22 серий по ~00:45:00

Файл
Кодек: MPEG4/ISO/AVC H.264
Формат: MKV
Качество: BDRip-AVC | 60 fps
Видео: 1024x576 (16:9) | 59.940 fps | 5.3 Мбит/сек
Аудио 1: AC3 | 2.0 | 48 kHz | 256 kbps | 16 bit | Дубляж (Рен-ТВ) |
Аудио 2: AC3 | 5.1 | 48 kHz | 640 kbps | 16 bit | MVO (NovaFilm |
Аудио 3: AC3 | 5.1 | 48 kHz | 640 kbps | 16 bit | Eng |
Субтитры: русские (Полные), английские (Полные)

Список серий

1 - Великолепная семерка
2 - С детьми все в порядке
3 - Непруха в Блэк Роке
4 - Город грехов
5 - Сказки на ночь
6 - Алая заря
7 - Свежая кровь
8 - Очень Сверхъестественное Рождество
9 - Охота на Ведьм
10 - Помечтай немного обо мне
11 - Заколдованный круг
12 - На войне как на войне
13 - Укротители духов
14 - Звонок с того света
15 - Время на моей стороне
16 - Пощады не будет

MedifInfo

Video
ID : 1
Format : AVC
Format/Info : Advanced Video Codec
Format profile : High@L4.1
Format settings, CABAC : Yes
Format settings, ReFrames : 4 frames
Codec ID : V_MPEG4/ISO/AVC
Duration : 39mn 55s
Bit rate : 5 300 Kbps
Width : 1 024 pixels
Height : 576 pixels
Display aspect ratio : 16:9
Frame rate : 59.940 fps
Color space : YUV
Chroma subsampling : 4:2:0
Bit depth : 8 bits
Scan type : Progressive
Bits/(Pixel*Frame) : 0.150
Stream size : 1.44 GiB (76%)
Writing library : x264 core 146 r2538 121396c
Encoding settings : cabac=1 / ref=3 / deblock=1:0:0 / analyse=0x3:0x113 / me=umh / subme=9 / psy=1 / psy_rd=1.00:0.10 / mixed_ref=1 / me_range=32 / chroma_me=1 / trellis=2 / 8x8dct=1 / cqm=0 / deadzone=21,11 / fast_pskip=0 / chroma_qp_offset=-3 / threads=12 / lookahead_threads=3 / sliced_threads=0 / nr=0 / decimate=1 / interlaced=0 / bluray_compat=0 / constrained_intra=0 / bframes=16 / b_pyramid=2 / b_adapt=2 / b_bias=0 / direct=3 / weightb=1 / open_gop=0 / weightp=2 / keyint=600 / keyint_min=59 / scenecut=40 / intra_refresh=0 / rc_lookahead=40 / rc=2pass / mbtree=0 / bitrate=5300 / ratetol=1.0 / qcomp=0.60 / qpmin=0 / qpmax=69 / qpstep=4 / cplxblur=20.0 / qblur=0.5 / vbv_maxrate=14000 / vbv_bufsize=14000 / nal_hrd=none / filler=0 / ip_ratio=1.40 / pb_ratio=1.30 / aq=1:1.00
Language : English
Default : Yes
Forced : No
Audio #1
ID : 2
Format : MPEG Audio
Format version : Version 1
Format profile : Layer 3
Codec ID : A_MPEG/L3
Codec ID/Hint : MP3
Duration : 39mn 55s
Bit rate mode : Constant
Bit rate : 256 Kbps
Channel(s) : 2 channels
Sampling rate : 48.0 KHz
Compression mode : Lossy
Stream size : 73.1 MiB (4%)
Title : Дубляж
Language : Russian
Default : Yes
Forced : No
Audio #2
ID : 3
Format : AC-3
Format/Info : Audio Coding 3
Mode extension : CM (complete main)
Codec ID : A_AC3
Duration : 39mn 55s
Bit rate mode : Constant
Bit rate : 640 Kbps
Channel(s) : 6 channels
Channel positions : Front: L C R, Side: L R, LFE
Sampling rate : 48.0 KHz
Bit depth : 16 bits
Compression mode : Lossy
Stream size : 183 MiB (9%)
Title : Многоголосый, закадровый NovaFilm
Language : Russian
Default : No
Forced : No
Audio #3
ID : 4
Format : AC-3
Format/Info : Audio Coding 3
Mode extension : CM (complete main)
Codec ID : A_AC3
Duration : 39mn 55s
Bit rate mode : Constant
Bit rate : 640 Kbps
Channel(s) : 6 channels
Channel positions : Front: L C R, Side: L R, LFE
Sampling rate : 48.0 KHz
Bit depth : 16 bits
Compression mode : Lossy
Stream size : 183 MiB (9%)
Title : Оригинал
Language : English
Default : No
Forced : No
Text
ID : 5
Format : UTF-8
Codec ID : S_TEXT/UTF8
Codec ID/Info : UTF-8 Plain Text
Title : Полные
Language : Russian
Default : No
Forced : No


Последний раз редактировалось: Kryl (2015-12-05 17:38), всего редактировалось 1 раз

[Цитировать]
sergei

Спасибо
 
Показать сообщения:    

Текущее время: 10-Дек 19:37

Часовой пояс: UTC + 3


Вы не можете начинать темы
Вы не можете отвечать на сообщения
Вы не можете редактировать свои сообщения
Вы не можете удалять свои сообщения
Вы не можете голосовать в опросах
Вы не можете прикреплять файлы к сообщениям
Вы не можете скачивать файлы