Властелин колец: Трилогия / The Lord of the Rings: Trilogy (2001-2003) BDRip-AVC | Extended Cut | 60 fps Пятый элемент / The Fifth Element (1997) BDRip 1080p | 60 fps Охота / The Hunt (2020) BDRip 1080p | 60 fps Принц Персии: Пески времени / Prince of Persia: The Sands of Time (2010) BDRip 1080p | 60 fps Агент Ева / Ava (2020) BDRip 1080p | 60 fps The Mortal Instruments: City of Bones / The Mortal Instruments: City of Bones (2013) BDRip 1080p | 60 fps Фантастическая четверка : Дилогия / Fantastic Four: Dilogy (2005-2007) BDRip 1080p | 60 fps Пиноккио / Pinocchio (2019) BDRip 720p | 60 fps
  1. Longevity:
    6 years 1 month
    Posts:
    2418
    Gender:
    Male
    «Небесная справедливость в действии»- Информация
    Название: Сверхъестественное
    Оригинальное название: Supernatural
    Год выхода: 2005
    Жанр: ужасы, фэнтези, триллер, драма, детектив
    Режиссер: Роберт Сингер, Филип Сгриккиа, Ким Мэннерс
    Сценарий: Эрик Крипке, Сера Гэмбл, Эндрю Дабб
    Продюсер: Филип Сгриккиа, Роберт Сингер, Тодд Филип Аронье
    В ролях: Джаред Падалеки, Дженсен Эклс, Миша Коллинз, Марк Шеппард, Тамо Пеникетт, Кёртис Армстронг, Элейна Хаффман, Осрик Чау, Эрика Кэрролл, Адам Харрингтон, Ким Родс, Джим Бивер, А. Дж. Баккли, Фелиция Дэй
    --Сюжет:
    Сериал рассказывает о приключениях братьев Сэма и Дина Винчестеров, которые путешествуют по Соединённым Штатам на чёрном автомобиле Chevrolet Impala 1967 года, расследуют паранормальные явления, многие из которых основаны на американских городских легендах и фольклоре, и сражаются с порождениями зла, такими как демоны и призраки.- - Страна: США
    Продолжительность: 22 серий по ~00:45:00

    Файл
    Кодек: MPEG4/ISO/AVC H.264
    Формат: MKV
    Качество: BDRip-AVC | 60 fps
    Видео: 1024x576 (16:9) | 59.940 fps | 5.3 Мбит/сек
    Аудио 1: AC3 | 2.0 | 48 kHz | 192 kbps | 16 bit | Дубляж (Рен-ТВ) |
    Аудио 2: AC3 | 5.1 | 48 kHz | 640 kbps | 16 bit | Eng |
    Субтитры: русские (Полные), английские (Полные)

    Список серий

    01 - Пилот
    02 - Вендиго
    03 - Мертвец в Воде
    04 - Призрачный Странник
    05 - Кровавая Мэри
    06 - Кожа
    07 - Человек с Крюком
    08 - Жуки
    09 - Дом
    10 - Психушка
    11 - Пугало
    12 - Вера
    13 - Шоссе 6.6.6
    14 - Кошмар
    15 - Бендеры
    16 - Тень
    17 - Адский Дом
    18 - Нечто Злое
    19 - Происхождение
    20 - Кровь Мертвеца
    21 - Спасение
    22 - Дьявольская Ловушка

    MedifInfo

    Video
    ID : 1
    Format : AVC
    Format/Info : Advanced Video Codec
    Format profile : High@L4.1
    Format settings, CABAC : Yes
    Format settings, ReFrames : 4 frames
    Codec ID : V_MPEG4/ISO/AVC
    Duration : 46mn 26s
    Bit rate : 5 300 Kbps
    Width : 1 024 pixels
    Height : 576 pixels
    Display aspect ratio : 16:9
    Frame rate : 59.940 fps
    Color space : YUV
    Chroma subsampling : 4:2:0
    Bit depth : 8 bits
    Scan type : Progressive
    Bits/(Pixel*Frame) : 0.150
    Stream size : 1.68 GiB (84%)
    Writing library : x264 core 146 r2538 121396c
    Encoding settings : cabac=1 / ref=3 / deblock=1:0:0 / analyse=0x3:0x113 / me=umh / subme=9 / psy=1 / psy_rd=1.00:0.10 / mixed_ref=1 / me_range=32 / chroma_me=1 / trellis=2 / 8x8dct=1 / cqm=0 / deadzone=21,11 / fast_pskip=0 / chroma_qp_offset=-3 / threads=12 / lookahead_threads=3 / sliced_threads=0 / nr=0 / decimate=1 / interlaced=0 / bluray_compat=0 / constrained_intra=0 / bframes=16 / b_pyramid=2 / b_adapt=2 / b_bias=0 / direct=3 / weightb=1 / open_gop=0 / weightp=2 / keyint=600 / keyint_min=59 / scenecut=40 / intra_refresh=0 / rc_lookahead=40 / rc=2pass / mbtree=0 / bitrate=5300 / ratetol=1.0 / qcomp=0.60 / qpmin=0 / qpmax=69 / qpstep=4 / cplxblur=20.0 / qblur=0.5 / vbv_maxrate=14000 / vbv_bufsize=14000 / nal_hrd=none / filler=0 / ip_ratio=1.40 / pb_ratio=1.30 / aq=1:1.00
    Language : English
    Default : Yes
    Forced : No
    Audio #1
    ID : 2
    Format : AC-3
    Format/Info : Audio Coding 3
    Mode extension : CM (complete main)
    Codec ID : A_AC3
    Duration : 46mn 26s
    Bit rate mode : Constant
    Bit rate : 192 Kbps
    Channel(s) : 2 channels
    Channel positions : Front: L R
    Sampling rate : 48.0 KHz
    Bit depth : 16 bits
    Compression mode : Lossy
    Stream size : 63.8 MiB (3%)
    Title : Дубляж Рен-ТВ
    Language : Russian
    Default : Yes
    Forced : No
    Audio #2
    ID : 3
    Format : AC-3
    Format/Info : Audio Coding 3
    Mode extension : CM (complete main)
    Codec ID : A_AC3
    Duration : 46mn 26s
    Bit rate mode : Constant
    Bit rate : 640 Kbps
    Channel(s) : 6 channels
    Channel positions : Front: L C R, Side: L R, LFE
    Sampling rate : 48.0 KHz
    Bit depth : 16 bits
    Compression mode : Lossy
    Stream size : 213 MiB (10%)
    Title : Оригинал
    Language : English
    Default : No
    Forced : No
    Text #1
    ID : 4
    Format : UTF-8
    Codec ID : S_TEXT/UTF8
    Codec ID/Info : UTF-8 Plain Text
    Title : Полные
    Language : Russian
    Default : No
    Forced : No
    Text #2
    ID : 5
    Format : UTF-8
    Codec ID : S_TEXT/UTF8
    Codec ID/Info : UTF-8 Plain Text
    Title : Полные
    Language : English
    Default : No
    Forced : No


    Last edited by Kryl on 2015-12-05 17:38; edited 1 time in total
  2. Longevity:
    5 years 4 months
    Posts:
    20
    Gender:
    Unknown
    во круть
    15-Nov-2015 16:39 (after 6 minutes)
  3. Longevity:
    5 years 4 months
    Posts:
    20
    Gender:
    Unknown
    все части будут
    15-Nov-2015 16:40 (after 52 seconds)
  4. Longevity:
    6 years 1 month
    Posts:
    2418
    Gender:
    Male
    4525все части будут
    Не знаю , не моя поделка .
    15-Nov-2015 16:42 (after 1 minute)
  5. Longevity:
    5 years 11 months
    Posts:
    49
    Gender:
    Unknown
    класс)
    18-Nov-2015 23:21 (after 3 days)
  6. Longevity:
    5 years 4 months
    Posts:
    2
    Gender:
    Unknown
    KRYL, вот за это спасибо. От души. :aa:
    22-Nov-2015 11:52 (after 3 days)


You cannot post new topics in this forum
You cannot reply to topics in this forum
You cannot edit your posts in this forum
You cannot delete your posts in this forum
You cannot vote in polls in this forum
You cannot attach files in this forum
You cannot download files in this forum