Кома (2020) BDRip 1080p | 60 fps Чистилище (1997) DVDRip 720p | 60 fps Герой (2019) BDRip 1080p | 60 fps 12 стульев (1971) BDRip 1080p | 60 fps Операция «Ы» и другие приключения Шурика (1965) BDRip-AVC | 60 fps Джентльмены удачи (1971) BDRip-AVC | 60 fps Аванпост / The Blackout (2019) BDRip 1080p | 60 fps Бриллиантовая рука (1968) BDRip 1080p | 60 fps
  1. Longevity:
    5 years 11 months
    Posts:
    2419
    Gender:
    Male
    Свадьба в Малиновке (1967) BDRip 1080p | 60 fps- Информация о фильме
    Название: Свадьба в Малиновке
    Год выхода: 1967
    Жанр: Мюзикл, комедия, военный
    Режиссер: Андрей Тутышкин
    Сценарий: Борис Александров, Леонид Юхвид
    Директор фильма: Г. Диденко
    В ролях: Владимир Самойлов, Людмила Алфимова, Валентина Николаенко, Евгений Лебедев, Зоя Федорова, Гелий Сысоев, Михаил Пуговкин, Николай Сличенко, Андрей Абрикосов, Григорий Абрикосов, Михаил Водяной, Тамара Носова, Эмилия Трейвас, Алексей Смирнов, Маргарита Криницына, Любовь Тищенко, Александр Орлов, Николай Пишванов, Юрий Шепелев, Раиса Пироженко, Вячеслав Воронин, Владимир Васильев (II), Лев Степанов, Владимир Колокольцев, Павел Первушин
    --О фильме:
    Идет гражданская воина. В украинской деревне то и дело меняется власть. Чтобы разделаться с бандой головорезов, красный командир уговаривает девушку Яринку разыграть ее свадьбу с атаманом…- - Страна: СССР
    Продолжительность: 01:32:19
    -- Файл
    Кодек: MPEG4/ISO/AVC H.264
    Формат: MKV
    Качество: BDRip 1080p
    Видео: 1920 x 816 (2.353) | 59.940 fps | 24.0 Мбит/сек
    Аудио 1: AC3 | 5.1 | 48 kHz | 448 kbps | 16 bit |
    Аудио 2: DTS | 5.1 | 48 kHz | 1510 kbps | 24 bit |
    Субтитры: нет

    MedifInfo

    Видео
    Идентификатор : 1
    Формат : AVC
    Формат/Информация : Advanced Video Codec
    Профиль формата : High@L4.1
    Параметр CABAC формата : Да
    Параметр ReFrames формата : 5 кадров
    Идентификатор кодека : V_MPEG4/ISO/AVC
    Продолжительность : 1 ч. 32 м.
    Битрейт : 24,0 Мбит/сек
    Ширина : 1920 пикселей
    Высота : 816 пикселей
    Соотношение сторон : 2,35:1
    Режим частоты кадров : Постоянный
    Частота кадров : 59,880 кадров/сек
    Частота кадров в оригинале : 59,940 кадров/сек
    Цветовое пространство : YUV
    Субдискретизация насыщенности : 4:2:0
    Битовая глубина : 8 бит
    Тип развёртки : Прогрессивная
    Бит/(Пиксели*Кадры) : 0.256
    Размер потока : 15,1 Гбайт (90%)
    Заголовок : www.60-fps.org
    Библиотека кодирования : x264 core 146 r2538 121396c
    Настройки программы : cabac=1 / ref=5 / deblock=1:-2:-2 / analyse=0x3:0x133 / me=esa / subme=9 / psy=1 / psy_rd=1.00:0.25 / mixed_ref=1 / me_range=32 / chroma_me=1 / trellis=2 / 8x8dct=1 / cqm=0 / deadzone=6,6 / fast_pskip=1 / chroma_qp_offset=-4 / threads=12 / lookahead_threads=1 / sliced_threads=0 / nr=0 / decimate=0 / interlaced=0 / bluray_compat=0 / constrained_intra=0 / bframes=3 / b_pyramid=2 / b_adapt=2 / b_bias=0 / direct=3 / weightb=1 / open_gop=0 / weightp=2 / keyint=599 / keyint_min=59 / scenecut=40 / intra_refresh=0 / rc_lookahead=60 / rc=2pass / mbtree=1 / bitrate=23999 / ratetol=1.0 / qcomp=0.80 / qpmin=0 / qpmax=69 / qpstep=4 / cplxblur=20.0 / qblur=0.5 / vbv_maxrate=62500 / vbv_bufsize=78125 / nal_hrd=none / filler=0 / ip_ratio=1.10 / aq=1:0.50
    Default : Да
    Forced : Нет
    Аудио #1
    Идентификатор : 2
    Формат : AC-3
    Формат/Информация : Audio Coding 3
    Расширение режима : CM (complete main)
    Параметр Endianness формата : Big
    Идентификатор кодека : A_AC3
    Продолжительность : 1 ч. 32 м.
    Вид битрейта : Постоянный
    Битрейт : 448 Кбит/сек
    Каналы : 6 каналов
    Расположение каналов : Front: L C R, Side: L R, LFE
    Частота : 48,0 КГц
    Битовая глубина : 16 бит
    Метод сжатия : С потерями
    Размер потока : 296 Мбайт (2%)
    Заголовок : AC3
    Язык : Russian
    Default : Да
    Forced : Нет
    Аудио #2
    Идентификатор : 3
    Формат : DTS
    Формат/Информация : Digital Theater Systems
    Режим : 16
    Параметр Endianness формата : Big
    Идентификатор кодека : A_DTS
    Продолжительность : 1 ч. 32 м.
    Вид битрейта : Постоянный
    Битрейт : 1509 Кбит/сек
    Каналы : 6 каналов
    Расположение каналов : Front: L C R, Side: L R, LFE
    Частота : 48,0 КГц
    Битовая глубина : 24 бит
    Метод сжатия : С потерями
    Размер потока : 997 Мбайт (6%)
    Заголовок : DTS
    Язык : Russian
    Default : Нет
    Forced : Нет
    Меню
    00:00:00.000 : :Chapter 01
    00:07:54.807 : :Chapter 02
    00:13:37.942 : :Chapter 03
    00:21:39.298 : :Chapter 04
    00:32:16.935 : :Chapter 05
    00:36:33.566 : :Chapter 06
    00:45:03.659 : :Chapter 07
    00:49:36.682 : :Chapter 08
    00:53:58.443 : :Chapter 09
    01:00:59.197 : :Chapter 10
    01:05:12.658 : :Chapter 11
    01:11:36.417 : :Chapter 12
    01:15:28.524 : :Chapter 13
    01:22:51.216 : :Chapter 14
    01:29:34.994 : :Chapter 15
    01:32:18.658 : :Chapter 16

    Release was prepared by 60 - fps

  2. Longevity:
    5 years 4 months
    Posts:
    97
    Gender:
    Unknown
    Класс!!! )))
    20-Jun-2015 00:11 (after 1 hour 19 minutes)
  3. Longevity:
    3 years 9 months
    Posts:
    11
    Gender:
    Unknown
    Плачу Плачу Плачу
    29-Dec-2016 22:57 (after 1 year 6 months)


You cannot post new topics in this forum
You cannot reply to topics in this forum
You cannot edit your posts in this forum
You cannot delete your posts in this forum
You cannot vote in polls in this forum
You cannot attach files in this forum
You cannot download files in this forum