VIP

  1. Longevity:
    7 years
    Posts:
    2413
    Gender:
    Male
    «Реален только ты»- Информация
    Название: Суррогаты
    Оригинальное название: Surrogates
    Год выхода: 2009
    Жанр: Боевик, фантастика, триллер
    Режиссер: Джонатан Мостоу
    Сценарий: Майкл Феррис, Джон Бренкето, Роберт Вендитти
    Продюсер: Макс Хандельман, Дэвид Хоберман, Тодд Либерман
    В ролях: Брюс Уиллис, Рада Митчел, Розамунд Пайк, Борис Коджо, Джеймс Джинти, Джеймс Кромуэлл, Винг Рэймс, Джек Ноузуорти, Девин Рэтрей, Майкл Кудиц
    --Сюжет:
    Действие разворачивается в будущем, в 2057 году, — когда люди практически перестанут общаться между собой и полностью возложат эту функцию на плечи роботов-заменителей. Они сильнее, моложе, привлекательнее своих обладателей и даже могут быть другого пола. Но находится террорист, начинающий уничтожать идеальных андроидов. Полицейскому Тому Гриру предстоит узнать, какие причины движут злоумышленником, лишающим жизни людей и их марионеток, технически и физически совершенных.
    - Страна: США
    Продолжительность: 01:28:36

    Файл
    Кодек: MPEG4/ISO/AVC/H.264
    Формат: MKV
    Качество: BDRip 1080p | 60 fps
    Видео: 1920 x 800 (2.400) | 59.940 fps | 20.0 Мбит/сек
    Аудио 1: AC3 | 5.1 | 48 kHz | 384 kbps | 16 bit | Дубляж |
    Аудио 2: AC3 | 5.1 | 48 kHz | 640 kbps | 16 bit | Eng |
    Субтитры: Русский, английский

    MedifInfo

    Видео
    Идентификатор : 1
    Формат : AVC
    Формат/Информация : Advanced Video Codec
    Профиль формата : [email protected]
    Параметр CABAC формата : Да
    Параметр ReFrames формата : 5 кадров
    Идентификатор кодека : V_MPEG4/ISO/AVC
    Продолжительность : 1 ч. 28 м.
    Битрейт : 20,0 Мбит/сек
    Ширина : 1920 пикселей
    Высота : 800 пикселей
    Соотношение сторон : 2,40:1
    Режим частоты кадров : Постоянный
    Частота кадров : 59,880 кадров/сек
    Частота кадров в оригинале : 59,940 кадров/сек
    Цветовое пространство : YUV
    Субдискретизация насыщенности : 4:2:0
    Битовая глубина : 8 бит
    Тип развёртки : Прогрессивная
    Бит/(Пиксели*Кадры) : 0.217
    Размер потока : 12,1 Гбайт (93%)
    Заголовок : www.60-fps.org
    Библиотека кодирования : x264 core 148 r2744 b97ae06
    Настройки программы : cabac=1 / ref=5 / deblock=1:-3:-3 / analyse=0x3:0x113 / me=umh / subme=8 / psy=1 / psy_rd=1.00:0.25 / mixed_ref=1 / me_range=32 / chroma_me=1 / trellis=1 / 8x8dct=1 / cqm=0 / deadzone=6,6 / fast_pskip=1 / chroma_qp_offset=-4 / threads=12 / lookahead_threads=2 / sliced_threads=0 / nr=0 / decimate=0 / interlaced=0 / bluray_compat=0 / constrained_intra=0 / bframes=3 / b_pyramid=2 / b_adapt=1 / b_bias=0 / direct=3 / weightb=1 / open_gop=0 / weightp=2 / keyint=599 / keyint_min=59 / scenecut=40 / intra_refresh=0 / rc_lookahead=50 / rc=2pass / mbtree=1 / bitrate=19999 / ratetol=1.0 / qcomp=0.80 / qpmin=0 / qpmax=69 / qpstep=4 / cplxblur=20.0 / qblur=0.5 / vbv_maxrate=62500 / vbv_bufsize=78125 / nal_hrd=none / filler=0 / ip_ratio=1.10 / aq=1:0.50
    Default : Да
    Forced : Нет
    Аудио #1
    Идентификатор : 2
    Формат : AC-3
    Формат/Информация : Audio Coding 3
    Расширение режима : CM (complete main)
    Параметр Endianness формата : Big
    Идентификатор кодека : A_AC3
    Продолжительность : 1 ч. 28 м.
    Вид битрейта : Постоянный
    Битрейт : 384 Кбит/сек
    Каналы : 6 каналов
    Расположение каналов : Front: L C R, Side: L R, LFE
    Частота : 48,0 КГц
    Битовая глубина : 16 бит
    Метод сжатия : С потерями
    Размер потока : 243 Мбайт (2%)
    Заголовок : Дубляж
    Язык : Russian
    Default : Да
    Forced : Нет
    Аудио #2
    Идентификатор : 3
    Формат : AC-3
    Формат/Информация : Audio Coding 3
    Расширение режима : CM (complete main)
    Параметр Endianness формата : Big
    Идентификатор кодека : A_AC3
    Продолжительность : 1 ч. 28 м.
    Вид битрейта : Постоянный
    Битрейт : 640 Кбит/сек
    Каналы : 6 каналов
    Расположение каналов : Front: L C R, Side: L R, LFE
    Частота : 48,0 КГц
    Битовая глубина : 16 бит
    Метод сжатия : С потерями
    Размер потока : 406 Мбайт (3%)
    Заголовок : english
    Язык : English
    Default : Нет
    Forced : Нет
    Текст #1
    Идентификатор : 4
    Формат : UTF-8
    Идентификатор кодека : S_TEXT/UTF8
    Идентификатор кодека/Информация : UTF-8 Plain Text
    Язык : Russian
    Default : Нет
    Forced : Нет
    Текст #2
    Идентификатор : 5
    Формат : UTF-8
    Идентификатор кодека : S_TEXT/UTF8
    Идентификатор кодека/Информация : UTF-8 Plain Text
    Язык : English
    Default : Нет
    Forced : Нет
    Текст #3
    Идентификатор : 6
    Формат : UTF-8
    Идентификатор кодека : S_TEXT/UTF8
    Идентификатор кодека/Информация : UTF-8 Plain Text
    Заголовок : Tol'ko nadpisi
    Язык : Russian
    Default : Да
    Forced : Нет
    Фильм сделан по заказу пользователя Талямба

    Release was prepared by 60-fps.org

  2. Longevity:
    5 years 1 month
    Posts:
    1675
    Gender:
    Male
    Оооо,спасибосики... ! Хитренький
    20-Jun-2017 20:17 (after 12 hours)
  3. Longevity:
    5 years 1 month
    Posts:
    1675
    Gender:
    Male
    Блин,а скачать не могу,проблеммы с интернет-провайдером... Грущу
    20-Jun-2017 20:19 (after 1 minute)
  4. Longevity:
    4 years 10 months
    Posts:
    6
    Gender:
    Unknown
    Смеюсь thats interesting movie thanks very much
    28-Jun-2017 20:01 (after 7 days)
  5. Longevity:
    5 years 1 month
    Posts:
    1675
    Gender:
    Male
    hungjengli, вацап нигааа... ! Крутой
    30-Jun-2017 23:11 (after 2 days 3 hours)


You cannot post new topics in this forum
You cannot reply to topics in this forum
You cannot edit your posts in this forum
You cannot delete your posts in this forum
You cannot vote in polls in this forum
You cannot attach files in this forum
You cannot download files in this forum