Аватар / Avatar (2009) BDRip 1080p | 120 fps | Extended Collector's Cut | Experimental Мстители: Война бесконечности / Avengers: Infinity War (2018) BDRip 1080p | 120 fps Хан Соло: Звёздные войны. Истории / Solo: A Star Wars Story (2018) BDRip 1080p | Локализованная версия | 120 fps Трансформеры: Месть падших / Transformers: Revenge of the Fallen (2009) BDRip 1080p | IMAX Edition | 120 fps Чужой / Alien (1979) BDRip 1080p | Director's Cut | 120 fps Аватар / Avatar (2009) BDRip 720p | Extended Cut | 95 fps Мир Юрского периода 2 / Jurassic World: Fallen Kingdom (2018) BDRip 720p | 95 fps Чужие / Aliens (1986) BDRip 1080p | Special Edition | 120 fps
Статистика раздачи
Размер:  8,56 GB   |    Зарегистрирован:  14 дней   |    Скачан:  3 раза

Полного источника не было: 13 дней

Личеров:  4  [  0 KB/s  ]   Подробная статистика пиров
 
 
 
  1. Стаж:
    4 года 1 месяц
    Сообщений:
    2426
    Пол:
    Мужской
    «It's been too long, dahlings» Информация
    Название: Суперсемейка 2
    Оригинальное название: Incredibles 2
    Год выхода: 2018
    Жанр: Мультфильм
    Режиссер: Брэд Бёрд
    Сценарий: Брэд Бёрд
    Продюсер: Николь Паради Гриндл, Джон Лассетер, Джон Уокер
    В ролях: Крэйг Т. Нельсон, Холли Хантер, Сара Вауэлл, Хак Милнер, Кэтрин Кинер, Илай Фучиле, Боб Оденкёрк, Сэмюэл Л. Джексон, Майкл Бёрд, София Буш

    Сюжет:
    После событий первой части суперсемейка пользуется повышенным вниманием со стороны журналистов. Неожиданно оказалось, что обаятельная Миссис Исключительная гораздо лучше смотрится на экране телевизора, чем её муж. Мистеру Исключительному все чаще приходится сидеть дома и приглядывать за детьми, у каждого из которых есть свои причины быть недовольным собственными суперспособностями. Однако семейным проблемам предстоит отступить на второй план, когда окажется, что спокойствию Суперсемейки угрожает новый могущественный враг.

    Страна: США
    Продолжительность: 01:57:50

    Файл
    Кодек: H.264
    Формат: MKV
    Качество: BDRip 720p | 95 fps
    Видео: 1280 x 536 (2.388) | 95.904 fps | 10.0 Мбит/сек
    Аудио: AC3 | 5.1 | 48 kHz | 384 kbps | 16 bit | Дубляж - iTunes |

    MedifInfo

    Видео
    Идентификатор : 1
    Формат : AVC
    Формат/Информация : Advanced Video Codec
    Профиль формата : High@L4.1
    Настройки формата : CABAC / 4 Ref Frames
    Параметр CABAC формата : Да
    Параметр RefFrames формата : 4 кадра
    Параметр GOP формата : M=3, N=4
    Идентификатор кодека : V_MPEG4/ISO/AVC
    Продолжительность : 1 ч. 57 м.
    Битрейт : 9999 Кбит/сек
    Ширина : 1280 пикселей
    Высота : 536 пикселей
    Соотношение сторон : 2,40:1
    Режим частоты кадров : Постоянный
    Частота кадров : 95,904 (95904/1000) кадров/сек
    Цветовое пространство : YUV
    Субдискретизация насыщенности : 4:2:0
    Битовая глубина : 8 бит
    Тип развёртки : Прогрессивная
    Бит/(Пиксели*Кадры) : 0.152
    Размер потока : 8,23 Гбайт (96%)
    Библиотека кодирования : x264 core 152 r2851 ba24899
    Настройки программы : cabac=1 / ref=3 / deblock=1:-3:-3 / analyse=0x3:0x113 / me=hex / subme=8 / psy=1 / psy_rd=1.00:0.25 / mixed_ref=1 / me_range=16 / chroma_me=1 / trellis=1 / 8x8dct=1 / cqm=0 / deadzone=6,6 / fast_pskip=1 / chroma_qp_offset=-4 / threads=12 / lookahead_threads=2 / sliced_threads=0 / nr=0 / decimate=0 / interlaced=0 / bluray_compat=0 / constrained_intra=0 / bframes=3 / b_pyramid=2 / b_adapt=1 / b_bias=0 / direct=1 / weightb=1 / open_gop=0 / weightp=2 / keyint=959 / keyint_min=95 / scenecut=40 / intra_refresh=0 / rc_lookahead=40 / rc=2pass / mbtree=1 / bitrate=9999 / ratetol=1.0 / qcomp=0.80 / qpmin=0 / qpmax=69 / qpstep=4 / cplxblur=20.0 / qblur=0.5 / vbv_maxrate=62500 / vbv_bufsize=78125 / nal_hrd=none / filler=0 / ip_ratio=1.10 / aq=1:0.50
    Default : Да
    Forced : Нет
    Аудио
    Идентификатор : 2
    Формат : AC-3
    Формат/Информация : Audio Coding 3
    Идентификатор кодека : A_AC3
    Продолжительность : 1 ч. 57 м.
    Вид битрейта : Постоянный
    Битрейт : 384 Кбит/сек
    Каналы : 6 каналов
    Расположение каналов : Front: L C R, Side: L R, LFE
    Частота : 48,0 КГц
    Частота кадров : 31,250 кадров/сек (1536 SPF)
    Битовая глубина : 16 бит
    Метод сжатия : С потерями
    Размер потока : 324 Мбайт (4%)
    Заголовок : iTunes
    Язык : Russian
    ServiceKind/String : Complete Main
    Default : Да
    Forced : Да
    Меню
    00:00:00.000 : :00:00:00.000
    00:03:22.327 : :00:03:22.327
    00:08:53.616 : :00:08:53.616
    00:09:36.784 : :00:09:36.784
    00:13:38.276 : :00:13:38.276
    00:15:44.735 : :00:15:44.735
    00:21:19.737 : :00:21:19.737
    00:23:28.282 : :00:23:28.282
    00:27:08.794 : :00:27:08.794
    00:28:59.571 : :00:28:59.571
    00:35:10.900 : :00:35:10.900
    00:39:07.845 : :00:39:07.845
    00:42:43.894 : :00:42:43.894
    00:43:42.411 : :00:43:42.411
    00:47:35.352 : :00:47:35.352
    00:48:53.889 : :00:48:53.889
    00:54:15.585 : :00:54:15.585
    00:56:16.039 : :00:56:16.039
    01:00:58.696 : :01:00:58.696
    01:02:01.884 : :01:02:01.884
    01:06:55.511 : :01:06:55.511
    01:09:18.237 : :01:09:18.237
    01:11:28.200 : :01:11:28.200
    01:12:37.686 : :01:12:37.686
    01:14:39.266 : :01:14:39.266
    01:18:00.968 : :01:18:00.968
    01:20:32.536 : :01:20:32.536
    01:25:01.930 : :01:25:01.930
    01:27:59.440 : :01:27:59.440
    01:31:53.925 : :01:31:53.925
    01:33:26.434 : :01:33:26.434
    01:36:25.237 : :01:36:25.237
    01:37:45.192 : :01:37:45.192
    01:43:56.897 : :01:43:56.897
    01:45:35.912 : :01:45:35.912
    01:47:30.902 : :01:47:30.902
    Внимание.
    Фильм находится в запароленном архиве !!!
    За приобретением ключа к архиву , писать в личку автору .

    Суперсемейка 2 (2018) BDRip 720p_95 fps.rar.torrent
    Зарегистрирован 2018-11-06 08:21
    E2DF94EAFF22614ED074E29C2FF4190DB68C4D51
    проверено
    3 раз
    0
    4 [0 KB/s]
    Похожие Темы
  2. Стаж:
    3 года 3 месяца
    Сообщений:
    150
    Пол:
    Мужской
    Большое Спасибо :)
    06-Ноя-2018 08:55 (спустя 34 минуты)
  3. Стаж:
    1 год 8 месяцев
    Сообщений:
    2
    Пол:
    Не указан
    Я бы загрузил его, но с любопытством мой hdtv поддерживает 720p со скоростью 120 кадров в секунду, но не с 96000/1001 кадров в секунду
    :(
    что-то глупое мое телевидение: V
    07-Ноя-2018 01:19 (спустя 16 часов)


Вы не можете начинать темы
Вы не можете отвечать на сообщения
Вы не можете редактировать свои сообщения
Вы не можете удалять свои сообщения
Вы не можете голосовать в опросах
Вы не можете прикреплять файлы к сообщениям
Вы можете скачивать файлы