Властелин колец: Трилогия / The Lord of the Rings: Trilogy (2001-2003) BDRip-AVC | Extended Cut | 60 fps План побега 2 / Escape Plan 2: Hades (2018) BDRip 720p | 60 fps Красный воробей / Red Sparrow (2018) BDRip 720p | 60 fps Невероятный Халк / The Incredible Hulk (2008) BDRip 720p | 60 fps Короче / Downsizing (2017) BDRip 720p | 60 fps Ограбление в ураган / The Hurricane Heist (2018) BDRip 720p | 60 fps Форма воды / The Shape of Water (2017) BDRip 720p | 60 fps Жажда смерти / Death Wish (2018) BDRip 1080p | 60 fps
  1. Стаж:
    4 года
    Сообщений:
    2414
    Пол:
    Мужской
    «The time is meow» Информация
    Название: Суперполицейские 2
    Оригинальное название: Super Troopers 2
    Год выхода: 2018
    Жанр: Комедия, криминал, детектив
    Режиссер: Джей Чандрашекхар
    Сценарий: Джей Чандрашекхар, Кевин Хеффернан
    Продюсер: Sam Alfstad, James Altman, William W. Archer
    В ролях: Шонн Уильям Скотт, Клифтон Коллинз мл., Стив Лемми, Эрик Столханске, Джей Чандрашекхар, Пол Сотер, Дэймон Уайанс мл., Кевин Хеффернан, Брайан Кокс, Мариса Кохлан

    Сюжет:
    Фильм расскажет о безалаберных дорожных патрульных из маленького городка на границе США и Канады. Чтобы навести порядок на пограничной дороге и разрешить международный конфликт, пятёрка суперполицейских вынуждена сотрудничать со своими невыносимыми канадскими коллегами.

    Страна: США
    Продолжительность: 01:39:30

    Файл
    Кодек: H.264
    Формат: MKV
    Качество: BDRip 720p | 60 fps
    Видео: 1280 x 690 (1.855) | 59.940 fps | 10.0 Мбит/сек
    Аудио 01: AC3 | 5.1 | 48 kHz | 384 kbps | 16 bit | iTunes |
    Аудио 02: AC3 | 2.0 | 48 kHz | 384 kbps | 16 bit | HDRezka Studio |
    Аудио 03: AC3 | 5.1 | 48 kHz | 448 kbps | 16 bit | english |
    Субтитры: Русские (full), английские

    MedifInfo

    Видео
    Идентификатор : 1
    Формат : AVC
    Формат/Информация : Advanced Video Codec
    Профиль формата : Main@L4.1
    Настройки формата : CABAC / 4 Ref Frames
    Параметр CABAC формата : Да
    Параметр RefFrames формата : 4 кадра
    Режим смешивания : Header stripping
    Идентификатор кодека : V_MPEG4/ISO/AVC
    Продолжительность : 1 ч. 39 м.
    Битрейт : 9999 Кбит/сек
    Ширина : 1280 пикселей
    Высота : 690 пикселей
    Соотношение сторон : 1,85:1
    Режим частоты кадров : Постоянный
    Частота кадров : 59,940 (60000/1001) кадров/сек
    Цветовое пространство : YUV
    Субдискретизация насыщенности : 4:2:0
    Битовая глубина : 8 бит
    Тип развёртки : Прогрессивная
    Бит/(Пиксели*Кадры) : 0.189
    Размер потока : 6,80 Гбайт (89%)
    Заголовок : www.60-fps.org
    Библиотека кодирования : x264 core 155 r2901 7d0ff22
    Настройки программы : cabac=1 / ref=3 / deblock=1:-3:-3 / analyse=0x1:0x111 / me=hex / subme=7 / psy=1 / psy_rd=1.00:0.25 / mixed_ref=1 / me_range=16 / chroma_me=1 / trellis=1 / 8x8dct=0 / cqm=0 / deadzone=6,6 / fast_pskip=1 / chroma_qp_offset=-4 / threads=12 / lookahead_threads=2 / sliced_threads=0 / nr=0 / decimate=0 / interlaced=0 / bluray_compat=0 / constrained_intra=0 / bframes=3 / b_pyramid=2 / b_adapt=1 / b_bias=0 / direct=1 / weightb=1 / open_gop=0 / weightp=2 / keyint=599 / keyint_min=59 / scenecut=40 / intra_refresh=0 / rc_lookahead=40 / rc=2pass / mbtree=1 / bitrate=9999 / ratetol=1.0 / qcomp=0.80 / qpmin=0 / qpmax=69 / qpstep=4 / cplxblur=20.0 / qblur=0.5 / vbv_maxrate=50000 / vbv_bufsize=62500 / nal_hrd=none / filler=0 / ip_ratio=1.10 / aq=1:0.50
    Default : Да
    Forced : Нет
    Аудио #1
    Идентификатор : 2
    Формат : AC-3
    Формат/Информация : Audio Coding 3
    Режим смешивания : Header stripping
    Идентификатор кодека : A_AC3
    Продолжительность : 1 ч. 39 м.
    Вид битрейта : Постоянный
    Битрейт : 384 Кбит/сек
    Каналы : 6 каналов
    Расположение каналов : Front: L C R, Side: L R, LFE
    Частота : 48,0 КГц
    Частота кадров : 31,250 кадров/сек (1536 SPF)
    Битовая глубина : 16 бит
    Метод сжатия : С потерями
    Размер потока : 273 Мбайт (3%)
    Заголовок : iTunes
    Язык : Russian
    ServiceKind/String : Complete Main
    Default : Да
    Forced : Да
    Аудио #2
    Идентификатор : 3
    Формат : AC-3
    Формат/Информация : Audio Coding 3
    Режим смешивания : Header stripping
    Идентификатор кодека : A_AC3
    Продолжительность : 1 ч. 39 м.
    Вид битрейта : Постоянный
    Битрейт : 192 Кбит/сек
    Каналы : 2 канала
    Расположение каналов : Front: L R
    Частота : 48,0 КГц
    Частота кадров : 31,250 кадров/сек (1536 SPF)
    Битовая глубина : 16 бит
    Метод сжатия : С потерями
    Размер потока : 137 Мбайт (2%)
    Заголовок : HDRezka Studio
    Язык : Russian
    ServiceKind/String : Complete Main
    Default : Нет
    Forced : Нет
    Аудио #3
    Идентификатор : 4
    Формат : AC-3
    Формат/Информация : Audio Coding 3
    Режим смешивания : Header stripping
    Идентификатор кодека : A_AC3
    Продолжительность : 1 ч. 39 м.
    Вид битрейта : Постоянный
    Битрейт : 448 Кбит/сек
    Каналы : 6 каналов
    Расположение каналов : Front: L C R, Side: L R, LFE
    Частота : 48,0 КГц
    Частота кадров : 31,250 кадров/сек (1536 SPF)
    Битовая глубина : 16 бит
    Метод сжатия : С потерями
    Размер потока : 319 Мбайт (4%)
    Заголовок : english
    Язык : English
    ServiceKind/String : Complete Main
    Default : Нет
    Forced : Нет
    Текст #1
    Идентификатор : 5
    Формат : UTF-8
    Идентификатор кодека : S_TEXT/UTF8
    Идентификатор кодека/Информация : UTF-8 Plain Text
    Заголовок : Full
    Язык : Russian
    Default : Нет
    Forced : Нет
    Текст #2
    Идентификатор : 6
    Формат : UTF-8
    Идентификатор кодека : S_TEXT/UTF8
    Идентификатор кодека/Информация : UTF-8 Plain Text
    Заголовок : Full
    Язык : English
    Default : Нет
    Forced : Нет
    Текст #3
    Идентификатор : 7
    Формат : UTF-8
    Идентификатор кодека : S_TEXT/UTF8
    Идентификатор кодека/Информация : UTF-8 Plain Text
    Заголовок : SDH
    Язык : English
    Default : Нет
    Forced : Нет
    Меню
    00:00:00.000 : en:Chapter 01
    00:05:15.398 : en:Chapter 02
    00:09:08.756 : en:Chapter 03
    00:12:43.012 : en:Chapter 04
    00:16:12.972 : en:Chapter 05
    00:22:11.955 : en:Chapter 06
    00:26:35.552 : en:Chapter 07
    00:29:48.620 : en:Chapter 08
    00:33:19.956 : en:Chapter 09
    00:36:33.608 : en:Chapter 10
    00:40:04.527 : en:Chapter 11
    00:43:10.879 : en:Chapter 12
    00:46:35.209 : en:Chapter 13
    00:51:43.141 : en:Chapter 14
    00:55:46.801 : en:Chapter 15
    01:01:09.207 : en:Chapter 16
    01:04:57.018 : en:Chapter 17
    01:07:07.064 : en:Chapter 18
    01:11:33.247 : en:Chapter 19
    01:14:53.530 : en:Chapter 20
    01:17:32.522 : en:Chapter 21
    01:22:55.136 : en:Chapter 22
    01:26:08.621 : en:Chapter 23
    01:28:43.901 : en:Chapter 24

    Релиз подготовлен 60 - fps



Вы не можете начинать темы
Вы не можете отвечать на сообщения
Вы не можете редактировать свои сообщения
Вы не можете удалять свои сообщения
Вы не можете голосовать в опросах
Вы не можете прикреплять файлы к сообщениям
Вы не можете скачивать файлы