[Цитировать]
mimok

Суперфорсаж! / Superfast! (2014) BDRip 720p | 60fps«They're going nowhere...fast»- Информация о фильме
Название: Суперфорсаж!
Оригинальное название: Superfast!
Год выхода: 2014
Жанр: Комедия
Режиссер: Джейсон Фридберг, Аарон Зельцер
Продюсер: Питер Сафран, Джейсон Фридберг, Аарон Зельцер
В ролях: Лили Мирожник, Дэйл Павински, Андреа Наведо, Шантель Вислэвски, Дэниэл Буко, Майкл Флорес, Вероника МакКласки, Гонсало Менендес, Алекс Ашбаух, Дио Джонсон
Описание фильма:
Короли комедии снова в строю. На этот раз объектом пародии стала «форсажная» франшиза и прочие фильмы о гонках, ограблениях и крутых тачках. Шутки еще смешнее, ирония еще жестче, плотность гэгов — еще выше.
Страна: США
Студия: Safran Company, The
Продолжительность: 01:39:31
Перевод: Дублированный (iTunes)
Субтитры: Отсутствуют

Дата мировой премьеры: 5 марта 2015
Дата российской премьеры: 12 марта 2015, «Вольга»
Файл
Формат: MKV
Кодек: MPEG-4 AVC/H.264
Качество: BDRip 720p
Видео: ~ 6509 Кбит/сек, 1280 x 720, 60.000 кадров/сек
Аудио: AC3 5.1, 48.0 KHz, 384 Кбит/сек - Русский

MediaInfo

Общее
Уникальный идентификатор : 238825125677443314941128334341032839749 (0xB3AC0BCD4D89613ABDEAD63AF7930A45)
Полное имя : D:\Торренты\Superfast! 60fps.mkv
Формат : Matroska
Версия формата : Version 2
Размер файла : 4,89 Гбайт
Продолжительность : 1 ч. 39 м.
Общий поток : 7033 Кбит/сек
Дата кодирования : UTC 2015-08-10 18:23:59
Программа кодирования : mkvmerge v6.1.0 ('Old Devil') built on Mar 4 2013 09:10:42
Библиотека кодирования : libebml v1.3.0 + libmatroska v1.4.0
Видео
Идентификатор : 1
Формат : AVC
Формат/Информация : Advanced Video Codec
Профиль формата : High@L4.1
Параметр CABAC формата : Да
Параметр ReFrames формата : 6 кадров
Идентификатор кодека : V_MPEG4/ISO/AVC
Продолжительность : 1 ч. 39 м.
Битрейт : 6509 Кбит/сек
Ширина : 1280 пикселей
Высота : 720 пикселей
Соотношение сторон : 16:9
Режим частоты кадров : Постоянный
Частота кадров : 60,000 кадров/сек
Цветовое пространство : YUV
Субдискретизация насыщенности : 4:2:0
Битовая глубина : 8 бит
Тип развёртки : Прогрессивная
Бит/(Пиксели*Кадры) : 0.118
Размер потока : 4,52 Гбайт (93%)
Библиотека кодирования : x264 core 130 r2273 b3065e6
Настройки программы : cabac=1 / ref=6 / deblock=1:0:0 / analyse=0x3:0x133 / me=umh / subme=8 / psy=1 / psy_rd=1.00:0.15 / mixed_ref=1 / me_range=20 / chroma_me=1 / trellis=2 / 8x8dct=1 / cqm=0 / deadzone=21,11 / fast_pskip=0 / chroma_qp_offset=-3 / threads=6 / lookahead_threads=2 / sliced_threads=0 / nr=0 / decimate=0 / interlaced=0 / bluray_compat=0 / constrained_intra=0 / bframes=8 / b_pyramid=2 / b_adapt=2 / b_bias=0 / direct=1 / weightb=1 / open_gop=0 / weightp=2 / keyint=250 / keyint_min=25 / scenecut=40 / intra_refresh=0 / rc=crf / mbtree=0 / crf=19.0 / qcomp=0.63 / qpmin=10 / qpmax=51 / qpstep=4 / ip_ratio=1.40 / pb_ratio=1.30 / aq=1:1.20
Default : Да
Forced : Нет
Аудио
Идентификатор : 2
Формат : AC-3
Формат/Информация : Audio Coding 3
Расширение режима : CM (complete main)
Параметр Endianness формата : Big
Идентификатор кодека : A_AC3
Продолжительность : 1 ч. 39 м.
Вид битрейта : Постоянный
Битрейт : 384 Кбит/сек
Каналы : 6 каналов
Расположение каналов : Front: L C R, Side: L R, LFE
Частота : 48,0 КГц
Битовая глубина : 16 бит
Метод сжатия : С потерями
Размер потока : 273 Мбайт (5%)
Default : Да
Forced : Нет

Скринлист

Скриншоты:

Релиз подготовлен 60 - fps



Последний раз редактировалось: mimok (2015-08-15 11:15), всего редактировалось 1 раз

[Цитировать]
Kryl

смотрел .. поржать можно :ag:

[Цитировать]
envy

Тоже смотрел н7а работе...
Мне не понравился...
Как многие привыкли говорить пендосовский юмор....))))
 
Показать сообщения:    

Текущее время: 02-Дек 21:11

Часовой пояс: UTC + 3


Вы не можете начинать темы
Вы не можете отвечать на сообщения
Вы не можете редактировать свои сообщения
Вы не можете удалять свои сообщения
Вы не можете голосовать в опросах
Вы не можете прикреплять файлы к сообщениям
Вы не можете скачивать файлы