[Цитировать]
Kryl

SuperАлиби / Alibi.com (2017) BDRip 720p | 60 fps- Информация
Название: SuperАлиби
Оригинальное название: Alibi.com
Год выхода: 2017
Жанр: Комедия
Режиссер: Филипп Лашо
Сценарий: Жюльен Аррути, Пьер Дудан, Филипп Лашо
Продюсер: Александра Фешнер, Франк Милсент
В ролях: Филипп Лашо, Элоди Фонтан, Жюльен Аррути, Тарек Будали, Дидье Бурдон, Натали Бай, Науэлл Мадани, Меди Садун, Венсан Дезанья, Элис Дюфур
--Сюжет:
Нужно алиби, чтобы втайне от супруги спокойно отдохнуть с друзьями на футболе? Вам поможет агентство по созданию алиби. Нужна отмазка в школе? Обращайтесь! Решили отдохнуть от семьи в выходные? Мы на связи! Этот стартап Грега и его команды уже получил оглушительный успех…
Но когда он встречает Фло, девушку своей мечты, которая презирает всех лгунов и изменщиков, ему приходится скрывать род своей деятельности. Паутина лжи Грега становится настолько сложной, что даже лучшему лжецу в мире придется изрядно изловчиться, чтобы выкрутиться из нее…
- Страна: Франция
Продолжительность: 01:29:10

Файл
Кодек: MPEG4/ISO/AVC/H.264
Формат: MKV
Качество: BDRip 720p | 60 fps
Видео: 1280 x 690 (1.855) | 60.000 fps | 10.0 Мбит/сек
Аудио: AC3 | 5.1 | 48 kHz | 384 kbps | 16 bit | Дубляж - iTunes |

MedifInfo

Видео
Идентификатор : 1
Формат : AVC
Формат/Информация : Advanced Video Codec
Профиль формата : High@L4.1
Параметр CABAC формата : Да
Параметр ReFrames формата : 3 кадра
Идентификатор кодека : V_MPEG4/ISO/AVC
Продолжительность : 1 ч. 29 м.
Вид битрейта : Переменный
Битрейт : 9712 Кбит/сек
Максимальный битрейт : 10000 Кбит/сек
Ширина : 1280 пикселей
Высота : 690 пикселей
Соотношение сторон : 1,85:1
Режим частоты кадров : Постоянный
Частота кадров : 60,000 кадров/сек
Стандарт вещания : PAL
Цветовое пространство : YUV
Субдискретизация насыщенности : 4:2:0
Битовая глубина : 8 бит
Тип развёртки : Прогрессивная
Бит/(Пиксели*Кадры) : 0.183
Размер потока : 6,05 Гбайт (94%)
Заголовок : www.60-fps.org
Язык : English
Default : Да
Forced : Нет
Основные цвета : BT.709
Характеристики трансфера : BT.709
Коэффициенты матрицы : BT.709
colour_range : Limited
Аудио
Идентификатор : 2
Формат : AC-3
Формат/Информация : Audio Coding 3
Расширение режима : CM (complete main)
Параметр Endianness формата : Big
Идентификатор кодека : A_AC3
Продолжительность : 1 ч. 29 м.
Вид битрейта : Постоянный
Битрейт : 384 Кбит/сек
Каналы : 6 каналов
Расположение каналов : Front: L C R, Side: L R, LFE
Частота : 48,0 КГц
Битовая глубина : 16 бит
Метод сжатия : С потерями
Размер потока : 245 Мбайт (4%)
Заголовок : Дубляж - iTunes
Язык : Russian
Default : Да
Forced : Нет
Меню
00:00:00.000 : en:00:00:00.000
00:07:35.333 : en:00:07:35.333
00:15:44.208 : en:00:15:44.208
00:20:42.583 : en:00:20:42.583
00:28:32.500 : en:00:28:32.500
00:36:59.292 : en:00:36:59.292
00:43:03.208 : en:00:43:03.208
00:53:31.833 : en:00:53:31.833
01:00:57.458 : en:01:00:57.458
01:07:43.250 : en:01:07:43.250
01:16:11.167 : en:01:16:11.167
01:21:13.708 : en:01:21:13.708

Релиз подготовлен 60 - fps

[Цитировать]
Талямба

угарный кин... Смеюсь до слёз хочу побыстрее скачать и посмотреть Фильм

[Цитировать]
Талямба

Фильм ещё бы в коллекцию залить бы два фильма "СУПЕР НЯНЬ" ... ! Краснею Фильм

[Цитировать]
sanrega

Бодрый фильм Улыбаюсь
 
Показать сообщения:    

Текущее время: 22-Июл 07:55

Часовой пояс: UTC + 3


Вы не можете начинать темы
Вы не можете отвечать на сообщения
Вы не можете редактировать свои сообщения
Вы не можете удалять свои сообщения
Вы не можете голосовать в опросах
Вы не можете прикреплять файлы к сообщениям
Вы не можете скачивать файлы